На всех торрентах на трекере установлена скидка на скачивание в размере 100 процентов(а).
 Возможность скачивания торрента НЕ зависит от ограничений при низком ратио, низком аплоаде, требуемом ратио или требуемом аплоаде.


Начать новую тему Ответить на тему
Статистика раздачи
Размер: 744.23 МБ | Добавлен: 26 апр 2014, 20:56 | Скачали: 0
Сидеров: 48  [0 байт/сек]    Личеров: 16  [0 байт/сек]
Пред. тема | След. тема 

Автор
Сообщение

СообщениеДобавлено: 26 апр 2014, 20:56 

Вечное сияние чистого разума / Вечное сияние страсти / Eternal Sunshine of the Spotless Mind

Страна: США
Жанр: Фантастика, мелодрама, драма
Год выпуска: 2004
Продолжительность: 01:47:41

Перевод: Профессиональный (двухголосый закадровый) (DVD)
Cубтитры: нет
Оригинальная аудиодорожка: нет

Режиссер: Мишель Гондри / Michel Gondry

В ролях: Джим Кэрри, Кейт Уинслет, Кирстен Данст, Брайан Прайс, Деббон Эйер, Джейн Адамс, Элайджа Вуд, Джерри Роберт Бирн, Дэвид Кросс, Марк Руффало, Пол Литовски, Райан Уитни, Том Уилкинсон, Томас Джэй Райан, Эмир Али Саид

Описание: Наконец-то изобретена машина, которая позволяет избавиться от любых воспоминаний. Джоэль и Клементина решают выбросить друг друга из головы. Но в памяти Джоэля всё ещё живы самые нежные моменты и чувства. Чем меньше он помнит, тем больше любит.
Понимая, что он просто не может без Клементины, Джоэль пытается найти способ, чтобы вернуть любимой память о прошлом. Пока ещё не очень поздно… Он должен победить ненавистный компьютерный мозг во что бы то ни стало!


Сравнительные сэмплы

Качество видео: HDRip
Формат видео: AVI

Видео: 624x336 (1.86:1), 23.976 fps, XviD build 50 ~828 kbps avg, 0.17 bit/pixel
Аудио: 48 kHz, MPEG Layer 3, 2 ch, ~128.00 kbps avgMediaInfo
General
Complete name : D:\Вечное сияние страсти.avi
Format : AVI
Format/Info : Audio Video Interleave
File size : 744 MiB
Duration : 1h 47mn
Overall bit rate : 966 Kbps
Writing application : VirtualDubMod 1.5.10.2 (build 2540/release)
Writing library : VirtualDubMod build 2540/release

Video
ID : 0
Format : MPEG-4 Visual
Format profile : Advanced Simple@L5
Format settings, BVOP : 1
Format settings, QPel : No
Format settings, GMC : No warppoints
Format settings, Matrix : Custom
Codec ID : XVID
Codec ID/Hint : XviD
Duration : 1h 47mn
Bit rate : 829 Kbps
Width : 624 pixels
Height : 336 pixels
Display aspect ratio : 1.85:1
Frame rate : 23.976 fps
Color space : YUV
Chroma subsampling : 4:2:0
Bit depth : 8 bits
Scan type : Progressive
Compression mode : Lossy
Bits/(Pixel*Frame) : 0.165
Stream size : 638 MiB (86%)
Writing library : XviD 1.2.1 (UTC 2008-12-04)

Audio
ID : 1
Format : MPEG Audio
Format version : Version 1
Format profile : Layer 3
Mode : Joint stereo
Mode extension : MS Stereo
Codec ID : 55
Codec ID/Hint : MP3
Duration : 1h 47mn
Bit rate mode : Constant
Bit rate : 128 Kbps
Channel(s) : 2 channels
Sampling rate : 48.0 KHz
Compression mode : Lossy
Stream size : 98.6 MiB (13%)
Alignment : Aligned on interleaves
Interleave, duration : 42 ms (1.00 video frame)
Interleave, preload duration : 504 ms
Writing library : LAME3.98.4
Скриншоты
загрузка...
Правила, инструкции, FAQ!!!
Торрент  Добавлен [26 апр 2014, 20:56] Скачать торрент
Скачать торрент
[ Размер 15.15 КБ / Просмотров 5 ]

Статус  
 
Размер  744.23 МБ
Приватный: Нет (DHT включён)
.torrent скачан  0
Как залить торрент? | Как скачать Torrent? | Как смотреть и слушать онлайн?  


     Отправить личное сообщение
   
Страница 1 из 1
Показать сообщения за:  Поле сортировки  
Начать новую тему Ответить на тему

   Похожие торренты   Автор   Ответы   Просмотры   Последнее сообщение 
В этой теме нет новых непрочитанных сообщений. Скачать торрент Проверен [iPad] Вечное сияние чистого разума / Eternal Sunshine of the Spotless Mind (Мишель Гондри / Michel Gondry) [2004 г., мелодрама, драма, BDRip]

в форуме Фильмы для iPod, iPhone, iPad, Размер: 2.39 ГБ, Здоровье: 100%

Anonymous

0
56|19

18
1

12 май 2015, 00:09

Anonymous Перейти к последнему сообщению

В этой теме нет новых непрочитанных сообщений. Скачать торрент Проверен (Punk Rock) Кукрыниксы - Вечное сияние чистого разума (Сборник новых песен) - 2010, MP3 (tracks), 128-320kbps

в форуме Русский Рок, Размер: 32 МБ, Здоровье: 100%

Anonymous

0
2|1

7
0

22 авг 2016, 02:12

Anonymous Перейти к последнему сообщению

В этой теме нет новых непрочитанных сообщений. Скачать торрент Северное сияние / Northern Lights (Майк Роуб / Mike Robe) [2009 г., детектив, мелодрама, драма, DVDRip]

в форуме Драмы, Мелодрамы, Размер: 1.44 ГБ, Здоровье: 100%

Anonymous

0
3|1

38
0

01 апр 2014, 09:36

Anonymous Перейти к последнему сообщению

В этой теме нет новых непрочитанных сообщений. Скачать торрент Почти спокойный мир / Un monde presque paisible (Мишель Девиль / Michel Deville) [2002, Франция, драма, мелодрама, комедия, DVDRip] Sub Rus + Original Fre

в форуме Драмы, Мелодрамы, Размер: 695.68 МБ, Здоровье: 100%

Anonymous

0
14|3

46
3

29 апр 2014, 13:54

Anonymous Перейти к последнему сообщению

В этой теме нет новых непрочитанных сообщений. Скачать торрент Проверен (Рок) СиЛя & ВЫХОД - Вечное №1 (mp3 коллекция) - 2004, MP3, VBR 128-192 kbps

в форуме Русский Рок, Размер: 699.01 МБ, Здоровье: 0%

Anonymous

0
0|0

0
0

23 авг 2016, 09:24

Anonymous Перейти к последнему сообщению



Сейчас этот форум просматривают: нет зарегистрированных пользователей и гости: 1


Вы не можете начинать темы
Вы не можете отвечать на сообщения
Вы не можете редактировать свои сообщения
Вы не можете удалять свои сообщения
Вы не можете добавлять вложения

Перейти:  

!ВНИМАНИЕ!
 Ресурс не предоставляет электронные версии произведений, а занимается лишь коллекционированием и каталогизацией ссылок, присылаемых и публикуемых на форуме нашими читателями. Если вы являетесь правообладателем какого-либо представленного материала и не желаете чтобы ссылка на него находилась в нашем каталоге, свяжитесь с нами и мы незамедлительно удалим её. Файлы для обмена на трекере предоставлены пользователями сайта, и администрация не несёт ответственности за их содержание. Просьба не заливать файлы, защищенные авторскими правами, а также файлы нелегального содержания!