На всех торрентах на трекере установлена скидка на скачивание в размере 100 процентов(а).
 Возможность скачивания торрента НЕ зависит от ограничений при низком ратио, низком аплоаде, требуемом ратио или требуемом аплоаде.


Начать новую тему Ответить на тему
Статистика раздачи
Размер: 749.26 МБ | Добавлен: 25 апр 2014, 08:52 | Скачали: 0
Сидеров: 25  [0 байт/сек]    Личеров: 8  [0 байт/сек]
Пред. тема | След. тема 

Автор
Сообщение

СообщениеДобавлено: 25 апр 2014, 08:52 

Кот / Кот в шляпе / The Cat in the Hat / Dr. Seuss' The Cat in the Hat

«The ultimate game of cat and house»
Страна: США
Жанр: фэнтези, комедия, приключения, семейный
Год выпуска: 2003
Продолжительность: 01:21:51
Перевод: Профессиональный (дублированный)
Пифагор
Cубтитры: нет
Режиссер: Бо Уэлш / Bo Welch

В ролях: Майк Майерс, Алек Болдуин, Келли Престон, Дакота Фаннинг, Спенсер Бреслин, Эми Хилл, Шон Хейс, Даниэль Чачран, Тейлор Райс, Бриттани Оукс

Описание: Конрад и Салли Валден дома со своей рыбкой одни. На улице дождь и делать решительно нечего. Пока не появляется Кот в Шляпе. Он знакомит детей с их воображением.

Поначалу это игры и развлечения, но затем всё выходит из под контроля, и ему надо исчезнуть до прихода родителей…

Качество видео: HDRip [BDRip 1080p]
Формат видео: AVI

Видео: XviD, 704x384 (16:9), 23.976 fps, 1 143 Kbps, 0.176 Bits/(Pixel*Frame)
Аудио: MP3, 48 KHz, 128 Kbps, 2 channels
Из книги «3500 кинорецензий»
Награды
Отчёт MediaInfo
General
Complete name : D:\Kot.2003.D.HDRip.XviD.mp3.749mb.avi
Format : AVI
Format/Info : Audio Video Interleave
File size : 749 MiB
Duration : 1h 21mn
Overall bit rate : 1 280 Kbps
Writing application : VirtualDubMod 1.5.10.2 (build 2540/release)
Writing library : VirtualDubMod build 2540/release

Video
ID : 0
Format : MPEG-4 Visual
Format profile : Advanced Simple@L5
Format settings, BVOP : 1
Format settings, QPel : No
Format settings, GMC : No warppoints
Format settings, Matrix : Custom
Codec ID : XVID
Codec ID/Hint : XviD
Duration : 1h 21mn
Bit rate : 1 143 Kbps
Width : 704 pixels
Height : 384 pixels
Display aspect ratio : 16:9
Frame rate : 23.976 fps
Color space : YUV
Chroma subsampling : 4:2:0
Bit depth : 8 bits
Scan type : Progressive
Compression mode : Lossy
Bits/(Pixel*Frame) : 0.176
Stream size : 669 MiB (89%)
Writing library : XviD 1.2.1 (UTC 2008-12-04)

Audio
ID : 1
Format : MPEG Audio
Format version : Version 1
Format profile : Layer 3
Mode : Joint stereo
Mode extension : MS Stereo
Codec ID : 55
Codec ID/Hint : MP3
Duration : 1h 21mn
Bit rate mode : Constant
Bit rate : 128 Kbps
Channel(s) : 2 channels
Sampling rate : 48.0 KHz
Compression mode : Lossy
Stream size : 74.8 MiB (10%)
Alignment : Aligned on interleaves
Interleave, duration : 42 ms (1.00 video frame)
Interleave, preload duration : 504 ms
Скриншоты
загрузка...
Правила, инструкции, FAQ!!!
Торрент  Добавлен [25 апр 2014, 08:52] Скачать торрент
Скачать торрент
[ Размер 15.18 КБ / Просмотров 6 ]

Статус  
 
Размер  749.26 МБ
Приватный: Нет (DHT включён)
.torrent скачан  0
Как залить торрент? | Как скачать Torrent? | Как смотреть и слушать онлайн?  


     Отправить личное сообщение
   
Страница 1 из 1
Показать сообщения за:  Поле сортировки  
Начать новую тему Ответить на тему

   Похожие торренты   Автор   Ответы   Просмотры   Последнее сообщение 
В этой теме нет новых непрочитанных сообщений. Скачать торрент Проверен Как приручить дракона 3Д / How to Train Your Dragon 3D (Дин ДеБлуа, Крис Сандерс / Dean DeBlois, Chris Sanders) [2010, США, мультфильм, фэнтези, комедия, приключения, семейный, HDRip - AVC] DUB | Anaglyph / Анаглиф

в форуме HD-Video в 3D, Размер: 1.64 ГБ, Здоровье: 100%

Anonymous

0
34|11

56
0

02 ноя 2014, 09:54

Anonymous Перейти к последнему сообщению

В этой теме нет новых непрочитанных сообщений. Скачать торрент Проверен [MULT] Лего. Фильм / The Lego Movie (Фил Лорд / Phil Lord, Кристофер Миллер / Christopher Miller) [2014, мультфильм, фэнтези, комедия, приключения, семейный, HDRip] [MP4, 640x] [iTunes Russia]

в форуме Видео для смартфонов и КПК, Размер: 584.28 МБ, Здоровье: 100%

Anonymous

0
56|19

92
0

02 авг 2014, 16:54

Anonymous Перейти к последнему сообщению

В этой теме нет новых непрочитанных сообщений. Скачать торрент Проверен [VIDEO] Кавказская пленница, или Новые приключения Шурика (Леонид Гайдай) [1966, Комедия, мелодрама, приключения, семейный, HDRip] [MP4, 480x]

в форуме Видео для смартфонов и КПК, Размер: 465.91 МБ, Здоровье: 100%

Anonymous

0
25|8

140
0

02 авг 2014, 17:04

Anonymous Перейти к последнему сообщению

В этой теме нет новых непрочитанных сообщений. Скачать торрент Проверен Шрэк в 3Д / Shrek 3D [2001 г., фэнтези, комедия, приключения, семейный, мультфильм, BDrip 1080p] Anaglyph / Анаглиф

в форуме HD-Video в 3D, Размер: 6.3 ГБ, Здоровье: 100%

Anonymous

0
9|4

77
0

02 ноя 2014, 09:55

Anonymous Перейти к последнему сообщению

В этой теме нет новых непрочитанных сообщений. Скачать торрент Проверен Шрэк в 3Д / Shrek 3D [2001 г., фэнтези, комедия, приключения, семейный, мультфильм, BDrip 720p] OverUnder / Вертикальная стереопара

в форуме HD-Video в 3D, Размер: 5.78 ГБ, Здоровье: 100%

Anonymous

0
3|1

10
0

07 сен 2016, 18:51

Anonymous Перейти к последнему сообщению



Сейчас этот форум просматривают: нет зарегистрированных пользователей и гости: 1


Вы не можете начинать темы
Вы не можете отвечать на сообщения
Вы не можете редактировать свои сообщения
Вы не можете удалять свои сообщения
Вы не можете добавлять вложения

Перейти:  

!ВНИМАНИЕ!
 Ресурс не предоставляет электронные версии произведений, а занимается лишь коллекционированием и каталогизацией ссылок, присылаемых и публикуемых на форуме нашими читателями. Если вы являетесь правообладателем какого-либо представленного материала и не желаете чтобы ссылка на него находилась в нашем каталоге, свяжитесь с нами и мы незамедлительно удалим её. Файлы для обмена на трекере предоставлены пользователями сайта, и администрация не несёт ответственности за их содержание. Просьба не заливать файлы, защищенные авторскими правами, а также файлы нелегального содержания!