На всех торрентах на трекере установлена скидка на скачивание в размере 100 процентов(а).
 Возможность скачивания торрента НЕ зависит от ограничений при низком ратио, низком аплоаде, требуемом ратио или требуемом аплоаде.


Начать новую тему Ответить на тему
Статистика раздачи
Размер: 2.24 ГБ | Добавлен: 22 апр 2014, 11:50 | Скачали: 0
Сидеров: 1  [0 байт/сек]    Личеров: 0  [0 байт/сек]
Пред. тема | След. тема 

Автор
Сообщение

СообщениеДобавлено: 22 апр 2014, 11:50 

Константин: Повелитель тьмы / Constantine
Ад и Рай держат пари на Земле


Страна: США
Жанр: фантастика, боевик, драма
Год выпуска: 2005
Продолжительность: 02:00:47

Перевод: Любительский (одноголосый закадровый), Е. Гаевский
Cубтитры: нет
Оригинальная аудиодорожка: есть

Режиссер: Френсис Лоренс (Francis Lawrence)

В ролях: Кияну Ривз (Keanu Reeves), Рэйчел Вайс (Rachel Weisz), Шайа ЛаБаф (Shia LaBeouf), Джаймон Хансу (Djimon Hounsou), Макс Бэйкер (Max Baker), Прюитт Тэйлор Винс (Pruitt Taylor Vince), Гевин Россдэйл (Gavin Rossdale), Тильда Суинтон (Tilda Swinton), Питер Стормаре (Peter Stormare)

Описание: В далёком детстве у Джона Константина открылся сверхъестественный дар - видеть потустороннее. Но разум мальчишки не был готов к таким открытиям. На этой почве Джон, уже будучи подростком, совершил неудачную попытку самоубийства. Теперь Джон Константин - экзорцист с божьим даром, регулярно пьющий и смолящий, как паровоз - ведёт борьбу с демонами и прочими исчадиями Ада в надежде получить прощение, чтобы не попасть в Геенну Огненную. Однако, несмотря на огромное количество депортированных в Ад демонов, господь бог не торопится с прощением... Судьба сводит Джона с детективом полиции Анджелой Додсон, которая обратилась к нему за помощью в расследовании обстоятельств смерти её сестры-близнеца. Вместе они попадают в мир ангелов и демонов, события в котором закручены настолько круто, что им обоим остаётся только одно – спастись.




От переводчика: Фильм переведён и озвучен мной, Евгением Гаевским. При переводе старался максимально приблизиться к оригиналу. Получилось или нет - не знаю. Я думаю, получилось. В любом случае - приятного просмотра.

P.S.: В случае обнаружения каких-либо ошибок, недочётов в переводе - сообщайте. Критике - буду только рад.

[Осторожно! В фильме присутствуют нехорошие слова!]




Качество видео: BDRip (исходник: HD tracker/Blu-ray Disk/1080p)
Формат видео: AVI
Видео кодек: XviD
Аудио кодек: AC3

Видео: 720x304, 2.35:1, 23.976 fps, XviD, 1802 kbps avg, 0.34 bit/pixel
Аудио 1: Русский (Е. Гаевский), AC3 Dolby Digital, 48 kHz, 3/2 (L,R,C,SL,SR+LFE), 448 kbps
Аудио 2: English (original), AC3 Dolby Digital, 48 kHz, 3/2 (L,R,C,SL,SR+LFE), 384 kbps














MediaInfo
Общее
Полное имя : D:\темы раздач\Constantine\Constantine.avi
Формат : AVI
Формат/Информация : Audio Video Interleave
Профиль формата : OpenDML
Размер файла : 2,24 Гбайт
Продолжительность : 2 ч. 0 м.
Общий поток : 2652 Кбит/сек
Название фильма : Константин / Constantine (2005) BDRip
Программа кодирования : VirtualDubMod 1.5.10.2 (build 2540/release)
Библиотека кодирования : VirtualDubMod build 2540/release

Видео
Идентификатор : 0
Формат : MPEG-4 Visual
Профиль формата : Advanced Simple@L5
Параметр BVOP формата : 1
Параметр QPel формата : Нет
Параметр GMC формата : Без точки перехода
Параметр матрицы формата : Default (MPEG)
Идентификатор кодека : XVID
Идентификатор кодека/Подсказка : XviD
Продолжительность : 2 ч. 0 м.
Битрейт : 1802 Кбит/сек
Ширина : 720 пикс.
Высота : 304 пикс.
Соотношение сторон : 2,35:1
Частота кадров : 23,976 кадр/сек
Цветовое пространство : YUV
Подвыборка цветности : 4:2:0
Битовая глубина : 8 бит
Тип развёртки : Прогрессивная
Метод сжатия : С потерями
Бит/(Пиксели*Кадры) : 0.343
Размер потока : 1,52 Гбайт (68%)
Библиотека кодирования : XviD 1.1.2 (UTC 2006-11-01)

Аудио #1
Идентификатор : 1
Формат : AC-3
Формат/Информация : Audio Coding 3
Расширение режима : CM (complete main)
Идентификатор кодека : 2000
Продолжительность : 2 ч. 0 м.
Вид битрейта : Постоянный
Битрейт : 448 Кбит/сек
Каналы : 6 каналов
Расположение каналов : Front: L C R, Side: L R, LFE
Частота : 48,0 КГц
Битовая глубина : 16 бит
Метод сжатия : С потерями
Размер потока : 387 Мбайт (17%)
Выравнивание : Разделение по промежуткам
Продолжительность промежутка : 42 мс. (1,00 видеокадр)
Время предзагрузки промежутка : 500 ms

Аудио #2
Идентификатор : 2
Формат : AC-3
Формат/Информация : Audio Coding 3
Расширение режима : CM (complete main)
Идентификатор кодека : 2000
Продолжительность : 2 ч. 0 м.
Вид битрейта : Постоянный
Битрейт : 384 Кбит/сек
Каналы : 6 каналов
Расположение каналов : Front: L C R, Side: L R, LFE
Частота : 48,0 КГц
Битовая глубина : 16 бит
Метод сжатия : С потерями
Размер потока : 332 Мбайт (14%)
Выравнивание : Разделение по промежуткам
Продолжительность промежутка : 42 мс. (1,00 видеокадр)
Время предзагрузки промежутка : 500 ms



загрузка...
Правила, инструкции, FAQ!!!
Торрент  Добавлен [22 апр 2014, 11:50] Скачать торрент
Скачать торрент
[ Размер 11.66 КБ / Просмотров 10 ]

Статус  
 
Размер  2.24 ГБ
Приватный: Нет (DHT включён)
.torrent скачан  0
Как залить торрент? | Как скачать Torrent? | Как смотреть и слушать онлайн?  


     Отправить личное сообщение
   
Страница 1 из 1
Показать сообщения за:  Поле сортировки  
Начать новую тему Ответить на тему

   Похожие торренты   Автор   Ответы   Просмотры   Последнее сообщение 
В этой теме нет новых непрочитанных сообщений. Скачать торрент Константин: Повелитель тьмы / Constantine (2005) BDRip 1080p

в форуме 720p | 1080p, Размер: 7.76 ГБ, Здоровье: 100%

Anonymous

0
71|5

16
428

21 фев 2014, 10:39

Anonymous Перейти к последнему сообщению

В этой теме нет новых непрочитанных сообщений. Скачать торрент Константин: Повелитель тьмы / Constantine (2005) BDRip 1080p | 60 fps

в форуме 720p | 1080p, Размер: 13.09 ГБ, Здоровье: 100%

Anonymous

0
73|18

36
371

21 фев 2014, 10:35

Anonymous Перейти к последнему сообщению

В этой теме нет новых непрочитанных сообщений. Скачать торрент Константин: Повелитель тьмы / Constantine (2005) BDRip 720p | D

в форуме 720p | 1080p, Размер: 4.37 ГБ, Здоровье: 100%

Anonymous

0
183|28

14
1028

21 фев 2014, 10:31

Anonymous Перейти к последнему сообщению

В этой теме нет новых непрочитанных сообщений. Скачать торрент Константин: Повелитель тьмы / Constantine (2005) PC | RePack by SeregA-Lus

в форуме Action, Размер: 1.2 ГБ, Здоровье: 100%

Anonymous

0
28|0

46
196

21 мар 2014, 08:51

Anonymous Перейти к последнему сообщению

В этой теме нет новых непрочитанных сообщений. Скачать торрент Воды слонам! / Water for Elephants (Френсис Лоуренс / Francis Lawrence) [2011, США, драма, HDRip] DUB

в форуме Драмы, Мелодрамы, Размер: 1.45 ГБ, Здоровье: 100%

Anonymous

0
4|0

23
1

03 янв 2014, 11:37

Anonymous Перейти к последнему сообщению



Сейчас этот форум просматривают: нет зарегистрированных пользователей и гости: 1


Вы не можете начинать темы
Вы не можете отвечать на сообщения
Вы не можете редактировать свои сообщения
Вы не можете удалять свои сообщения
Вы не можете добавлять вложения

Перейти:  

!ВНИМАНИЕ!
 Ресурс не предоставляет электронные версии произведений, а занимается лишь коллекционированием и каталогизацией ссылок, присылаемых и публикуемых на форуме нашими читателями. Если вы являетесь правообладателем какого-либо представленного материала и не желаете чтобы ссылка на него находилась в нашем каталоге, свяжитесь с нами и мы незамедлительно удалим её. Файлы для обмена на трекере предоставлены пользователями сайта, и администрация не несёт ответственности за их содержание. Просьба не заливать файлы, защищенные авторскими правами, а также файлы нелегального содержания!