На всех торрентах на трекере установлена скидка на скачивание в размере 100 процентов(а).
 Возможность скачивания торрента НЕ зависит от ограничений при низком ратио, низком аплоаде, требуемом ратио или требуемом аплоаде.


Начать новую тему Ответить на тему
Статистика раздачи
Размер: 744.46 МБ | Добавлен: 22 апр 2014, 11:48 | Скачали: 0
Сидеров: 12  [0 байт/сек]    Личеров: 4  [0 байт/сек]
Пред. тема | След. тема 

Автор
Сообщение

СообщениеДобавлено: 22 апр 2014, 11:48 

Библиотекарь: В поисках копья судьбы / The Librarian: Quest for the Spear

Страна: США
Жанр: фэнтези, боевик, приключения, комедия
Год выпуска: 2004
Продолжительность: 01:30:13
Перевод: Профессиональный (многоголосый закадровый)

Cубтитры: нет
Режиссер: Питер Уинтер / Peter Winther

В ролях: Ноа Уайли, Соня Уолгер, Боб Ньюхарт, Кайл МакЛахлан, Келли Ху, Дэвид Дайан Фишер, Джейн Куртин, Олимпия Дукакис, Лиза Бреннер, Марио Иван Мартинес, Клайд Кусацу, Алехандра Голла, Хосе Монтини, Джессика Морено, Маурицио Льера, Антонио Монрой, Леон Де Луис, Марк Франко, Кирк М. Петручелли, Майкл Роскин, Дарио Риполл, Марко Аурелио

Описание: Из тайных хранилищ Нью-Йоркской Публичной библиотеки похищен магический артефакт — фрагмент Копья Судьбы. Библиотекарь Флинн Карсен должен вернуть его любой ценой и заодно найти оставшиеся два фрагмента прежде, чем ими завладеют злодеи.

Качество видео: BDRip [Blu-Ray Remux 1080i]
Формат видео: AVI

Видео: XviD, 656x368 (16:9), 25 fps, 1 016 Kbps, 0.168 Bits/(Pixel*Frame)
Аудио: MP3, 48 KHz, 128 Kbps, 2 channels

Сэмпл
Отчёт MediaInfo
General
Complete name : D:\Bibliotekar'.V.poiskah.kop'ja.sud'by.2004.P.BDRip.XviD.mp3.744mb.avi
Format : AVI
Format/Info : Audio Video Interleave
File size : 744 MiB
Duration : 1h 30mn
Overall bit rate : 1 154 Kbps
Writing application : VirtualDubMod 1.5.10.2 (build 2540/release)
Writing library : VirtualDubMod build 2540/release

Video
ID : 0
Format : MPEG-4 Visual
Format profile : Advanced Simple@L5
Format settings, BVOP : 1
Format settings, QPel : No
Format settings, GMC : No warppoints
Format settings, Matrix : Custom
Codec ID : XVID
Codec ID/Hint : XviD
Duration : 1h 30mn
Bit rate : 1 016 Kbps
Width : 656 pixels
Height : 368 pixels
Display aspect ratio : 16:9
Frame rate : 25.000 fps
Color space : YUV
Chroma subsampling : 4:2:0
Bit depth : 8 bits
Scan type : Progressive
Compression mode : Lossy
Bits/(Pixel*Frame) : 0.168
Stream size : 656 MiB (88%)
Writing library : XviD 1.2.1 (UTC 2008-12-04)

Audio
ID : 1
Format : MPEG Audio
Format version : Version 1
Format profile : Layer 3
Codec ID : 55
Codec ID/Hint : MP3
Duration : 1h 30mn
Bit rate mode : Constant
Bit rate : 128 Kbps
Channel(s) : 2 channels
Sampling rate : 48.0 KHz
Compression mode : Lossy
Stream size : 82.6 MiB (11%)
Alignment : Aligned on interleaves
Interleave, duration : 40 ms (1.00 video frame)
Interleave, preload duration : 504 ms
Writing library : LAME3.98r
Encoding settings : -m s -V 4 -q 2 -lowpass 17 -b 128
Скриншоты
загрузка...
Правила, инструкции, FAQ!!!
Торрент  Добавлен [22 апр 2014, 11:48] Скачать торрент
Скачать торрент
[ Размер 15.07 КБ / Просмотров 13 ]

Статус  
 
Размер  744.46 МБ
Приватный: Нет (DHT включён)
.torrent скачан  0
Как залить торрент? | Как скачать Torrent? | Как смотреть и слушать онлайн?  


     Отправить личное сообщение
   
Страница 1 из 1
Показать сообщения за:  Поле сортировки  
Начать новую тему Ответить на тему

   Похожие торренты   Автор   Ответы   Просмотры   Последнее сообщение 
В этой теме нет новых непрочитанных сообщений. Скачать торрент Проверен [VIDEO] Библиотекарь. Трилогия / The Librarian. Trilogy (Питер Уинтер / Peter Winther, Джонатан Фрейкс / Jonathan Frakes) [2004, 2006, 2008, Фэнтези, боевик, приключения, HDRip] [MP4, 800x] MVO

в форуме Видео для смартфонов и КПК, Размер: 2.92 ГБ, Здоровье: 100%

Anonymous

0
3|1

86
0

02 авг 2014, 17:03

Anonymous Перейти к последнему сообщению

В этой теме нет новых непрочитанных сообщений. Скачать торрент Проверен [iPhone] Библиотекарь 1, 2, 3 / The Librarian 1, 2, 3 [2004, 2006, 2008 Боевик, приключения, HDTVRip, 576х320]

в форуме Фильмы для iPod, iPhone, iPad, Размер: 1.96 ГБ, Здоровье: 100%

Anonymous

0
5|2

51
0

12 май 2015, 00:14

Anonymous Перейти к последнему сообщению

В этой теме нет новых непрочитанных сообщений. Скачать торрент Проверен [iPad] Агент Джонни Инглиш / Johnny English (Питер Хауит / Peter Howitt) [2003, боевик, комедия, приключения, BDRip]

в форуме Фильмы для iPod, iPhone, iPad, Размер: 2.35 ГБ, Здоровье: 100%

Гость

0
2|1

45
0

13 май 2015, 23:57

Гость Перейти к последнему сообщению

В этой теме нет новых непрочитанных сообщений. Скачать торрент Властелин колец: Две крепости / The Lord of the Rings: The Two Towers (Питер Джексон / Peter Jackson) [2002 г., фэнтези, боевик, приключения, BDRip-AVC] [Extended Edition]

в форуме Фантастика, Фэнтези, Размер: 2.59 ГБ, Здоровье: 100%

Anonymous

0
57|19

47
0

22 апр 2014, 11:50

Anonymous Перейти к последнему сообщению

В этой теме нет новых непрочитанных сообщений. Скачать торрент Властелин колец: Братство кольца / The Lord of the Rings: The Fellowship of the Ring (Питер Джексон / Peter Jackson) [2001 г., фэнтези, боевик, приключения, BDRip-AVC] [Extended Edition]

в форуме Фантастика, Фэнтези, Размер: 2.19 ГБ, Здоровье: 100%

Anonymous

0
69|19

60
1

26 апр 2014, 20:56

Anonymous Перейти к последнему сообщению



Сейчас этот форум просматривают: нет зарегистрированных пользователей и гости: 1


Вы не можете начинать темы
Вы не можете отвечать на сообщения
Вы не можете редактировать свои сообщения
Вы не можете удалять свои сообщения
Вы не можете добавлять вложения

Перейти:  

!ВНИМАНИЕ!
 Ресурс не предоставляет электронные версии произведений, а занимается лишь коллекционированием и каталогизацией ссылок, присылаемых и публикуемых на форуме нашими читателями. Если вы являетесь правообладателем какого-либо представленного материала и не желаете чтобы ссылка на него находилась в нашем каталоге, свяжитесь с нами и мы незамедлительно удалим её. Файлы для обмена на трекере предоставлены пользователями сайта, и администрация не несёт ответственности за их содержание. Просьба не заливать файлы, защищенные авторскими правами, а также файлы нелегального содержания!