На всех торрентах на трекере установлена скидка на скачивание в размере 100 процентов(а).
 Возможность скачивания торрента НЕ зависит от ограничений при низком ратио, низком аплоаде, требуемом ратио или требуемом аплоаде.


Начать новую тему Ответить на тему
Статистика раздачи
Размер: 1.45 ГБ | Добавлен: 22 апр 2014, 11:41 | Скачали: 0
Сидеров: 55  [0 байт/сек]    Личеров: 18  [0 байт/сек]
Пред. тема | След. тема 

Автор
Сообщение

СообщениеДобавлено: 22 апр 2014, 11:41 

Черный рыцарь / Black Knight

Год выпуска: 2001
Выпущено: США
Жанр: фэнтези, комедия, приключения
Продолжительность: 01:35:37
Перевод: Профессиональный (многоголосый, закадровый)
Субтитры: нет
Режиссер: Джил Джангер / Gil Junger
В ролях: Мартин Лоуренс, Марша Томасон, Том Уилкинсон, Винсент Риган, Майкл Кантримэн, Кевин Конуэй, Джаннетт Вигар, Эрик Дженсен, Дикран Тулейн, Хелен Кэри
О фильме: Был обычный летний день. Джамал, как обычно, чистил ров в городском парке развлечений «Средневековый мир». Но судьба уже готовила ему самое веселое и безумное приключение в его жизни...
Случайно перевернувшись через перила моста, Джамал падает в воду и выныривает в Средневековой Англии! Принятый за посла из Нормандии из-за странной одежды и манеры говорить, он знакомится с очаровательной заговорщицей, которая хочет свергнуть короля-тирана.
Затянутый в заговор, Джамал между делом планирует открытие сети ресторанов быстрого питания, соблазняет дочку короля и запугивает до смерти всех горожан своими «колдовскими» способностями...

Релиз:
Автор: kingsize87

Качество: BDRip (источник: / Blu-ray / 1080p)
Формат: AVI
Видео: 720x304 (2.37:1), 23,976 fps, XviD build 65 ~1781 kbps avg, 0.34 bit/pixel
Аудио: 48 kHz, AC3 Dolby Digital, 3/2 (L,C,R,l,r) + LFE ch, ~384.00 kbps avg
Размер: 1487.20 Mb (1/3 DVD-R)
Кадры из фильма

Mi
Формат/Информация : Audio Video Interleave
Размер файла : 1,45 Гбайт
Продолжительность : 1 ч. 35 м.
Общий поток : 2174 Кбит/сек
Название фильма : Черный рыцарь / Black Knight (2001) BDRip
Режиссёр : kingsize87
Программа кодирования : VirtualDubMod 1.5.10.2 (build 2540/release)
Правообладатель : HQCLUB
Примечание : 08.01.2014

Видео
Идентификатор : 0
Формат : MPEG-4 Visual
Профиль формата : Advanced Simple@L5
Параметр BVOP формата : 1
Параметр QPel формата : Нет
Параметр GMC формата : Без точки перехода
Параметр матрицы формата : Выборочная
Идентификатор кодека : XVID
Идентификатор кодека/Подсказка : XviD
Продолжительность : 1 ч. 35 м.
Битрейт : 1781 Кбит/сек
Ширина : 720 пикселей
Высота : 304 пикселя
Соотношение сторон : 2,35:1
Частота кадров : 23,976 кадра/сек
Цветовое пространство : YUV
Субдискретизация насыщенности : 4:2:0
Битовая глубина : 8 бит
Тип развёртки : Прогрессивная
Метод сжатия : С потерями
Бит/(Пиксели*Кадры) : 0.339
Размер потока : 1,19 Гбайт (82%)
Библиотека кодирования : XviD 65

Аудио
Идентификатор : 1
Формат : AC-3
Формат/Информация : Audio Coding 3
Расширение режима : CM (complete main)
Параметр Endianness формата : Big
Идентификатор кодека : 2000
Продолжительность : 1 ч. 35 м.
Вид битрейта : Постоянный
Битрейт : 384 Кбит/сек
Каналы : 6 каналов
Расположение каналов : Front: L C R, Side: L R, LFE
Частота : 48,0 КГц
Битовая глубина : 16 бит
Метод сжатия : С потерями
Размер потока : 263 Мбайт (18%)
Выравнивание : Разделение по промежуткам
Продолжительность промежутка : 42 мс. (1,00 видеокадр)
Время предзагрузки промежутка : 500 мс.

загрузка...
Правила, инструкции, FAQ!!!
Торрент  Добавлен [22 апр 2014, 11:41] Скачать торрент
Скачать торрент
[ Размер 15.14 КБ / Просмотров 8 ]

Статус  
 
Размер  1.45 ГБ
Приватный: Нет (DHT включён)
.torrent скачан  0
Как залить торрент? | Как скачать Torrent? | Как смотреть и слушать онлайн?  


     Отправить личное сообщение
   
Страница 1 из 1
Показать сообщения за:  Поле сортировки  
Начать новую тему Ответить на тему

   Похожие торренты   Автор   Ответы   Просмотры   Последнее сообщение 
В этой теме нет новых непрочитанных сообщений. Скачать торрент Проверен Советы с того света / Командный дух / Teen Spirit (Джил Джангер / Gil Junger) [2011, США, фэнтези, драма, комедия, DVDRip] Dub (Дисней)

в форуме Фантастика, Фэнтези, Размер: 1.4 ГБ, Здоровье: 100%

Anonymous

0
11|4

40
0

04 авг 2014, 08:06

Anonymous Перейти к последнему сообщению

В этой теме нет новых непрочитанных сообщений. Скачать торрент Черный рыцарь / Black Knight (2001) BDRip

в форуме Фантастика, Фэнтези, Размер: 1.88 ГБ, Здоровье: 100%

Anonymous

0
5|1

57
28

03 янв 2014, 12:21

Anonymous Перейти к последнему сообщению

В этой теме нет новых непрочитанных сообщений. Скачать торрент Черный рыцарь / Black Knight (2001) BDRip 1080p

в форуме 720p | 1080p, Размер: 5.75 ГБ, Здоровье: 0%

Anonymous

0
0|0

48
0

03 янв 2014, 12:27

Anonymous Перейти к последнему сообщению

В этой теме нет новых непрочитанных сообщений. Скачать торрент Рыцарь дня / Knight and Day (Джеймс Мэнголд / James Mangold) [2010, США, Боевик, комедия, приключения, BDRip] [Расширенная версия / Extended cut] Dub

в форуме Боевики, Размер: 1.46 ГБ, Здоровье: 100%

Anonymous

0
56|19

39
0

16 апр 2014, 07:48

Anonymous Перейти к последнему сообщению

В этой теме нет новых непрочитанных сообщений. Скачать торрент Рыцарь дня / Knight and Day (Джеймс Мэнголд / James Mangold) [2010, США, Боевик, комедия, приключения, BDRip] [Расширенная версия / Extended cut] Dub

в форуме Боевики, Размер: 746.41 МБ, Здоровье: 100%

Anonymous

0
28|9

41
0

15 апр 2014, 08:16

Anonymous Перейти к последнему сообщению



Сейчас этот форум просматривают: нет зарегистрированных пользователей и гости: 1


Вы не можете начинать темы
Вы не можете отвечать на сообщения
Вы не можете редактировать свои сообщения
Вы не можете удалять свои сообщения
Вы не можете добавлять вложения

Перейти:  

!ВНИМАНИЕ!
 Ресурс не предоставляет электронные версии произведений, а занимается лишь коллекционированием и каталогизацией ссылок, присылаемых и публикуемых на форуме нашими читателями. Если вы являетесь правообладателем какого-либо представленного материала и не желаете чтобы ссылка на него находилась в нашем каталоге, свяжитесь с нами и мы незамедлительно удалим её. Файлы для обмена на трекере предоставлены пользователями сайта, и администрация не несёт ответственности за их содержание. Просьба не заливать файлы, защищенные авторскими правами, а также файлы нелегального содержания!