На всех торрентах на трекере установлена скидка на скачивание в размере 100 процентов(а).
 Возможность скачивания торрента НЕ зависит от ограничений при низком ратио, низком аплоаде, требуемом ратио или требуемом аплоаде.


Начать новую тему Ответить на тему
Статистика раздачи
Размер: 2.05 ГБ | Добавлен: 22 апр 2014, 11:39 | Скачали: 1
Сидеров: 54  [0 байт/сек]    Личеров: 18  [0 байт/сек]
Пред. тема | След. тема 

Автор
Сообщение

СообщениеДобавлено: 22 апр 2014, 11:39 

Донни Дарко / Donnie Darko [Театральная Версия]

Страна: США
Жанр: Фантастика, триллер, драма, детектив
Год выпуска: 2001
Продолжительность: 01:53:14

Перевод: Одноголосый закадровый - Дмитрий Есарев

Cубтитры: английские, русские
Оригинальная аудиодорожка: нет

Режиссер: Ричард Келли / Richard Kelly

В ролях: Джейк Джилленхол, Джена Мэлоун, Мэгги Джилленхол, Джеймс Дювал, Патрик Суэйзи, Ной Уайл, Дрю Бэрримор, Сет Роген, Кэтрин Росс, Мэри МакДоннел и др.

Описание:
Старшеклассник Донни Дарко живет в конце 1980-х, и у него большие проблемы. Он ходит во сне, поджигает чужие дома и общается с загадочным существом в костюме огромного кролика. Что это - финальные стадии шизофрении или знак наступающего Апокалипсиса?

Амбициозный дебютант Ричард Келли ухитрился снять настолько разнообразный фильм, что студийные маркетологи так и не смогли придумать, как продвигать ленту. Что это - подростковая драма, научная фантастика, психологический триллер, социальная сатира, политическое высказывание, артхауcный эксперимент? Все вместе и в одном флаконе. Да плюс еще замечательная команда актеров второго плана и великолепный Джейк Гилленхол в заглавной роли. Не взяв ни одного большого приза и мельком пройдя в прокате, "Донни Дарко" вошел в сотню лучших лент мира по версии портала IMDB!

Доп. информация:
Перевод Дмитрия Есарева доступен благодаря slava_irish, работа со звуком - Переводман.



Файл:
Качество видео: BDRip-AVC, исходник [BDRemux 1080р]
Формат видео: MKV
Видео: 1024x436 (2.35:1), 23.976 fps, ~1699 Kbps, 0.159 bit/pixel
Аудио: 48 kHz, AC3 Dolby Digital, 3/2 (L,C,R) + L R, LFE ch, ~448.00 kbps avg - Есарев
Аудио: 48 kHz, AC3 Dolby Digital, 3/2 (L,C,R) + L R, LFE ch, ~448.00 kbps avg - Eng
Формат субтитров: softsub (SRT)
MediaInfo
Общее
Уникальный идентификатор : 184807960750321797443775272211547971685 (0x8B08B7F35A4F14979503A2BD58B86065)
Формат : Matroska
Версия формата : Version 2
Размер файла : 2,05 Гбайт
Продолжительность : 1 ч. 53 м.
Общий поток : 2596 Кбит/сек
Название фильма : Donni Darko.2001.BDRip-AVC.AVO.Esarev
Дата кодирования : UTC 2014-02-23 15:36:56
Программа кодирования : mkvmerge v2.9.7 ('Tenderness') built on Jul 1 2009 18:43:35
Библиотека кодирования : libebml v0.7.7 + libmatroska v0.8.1

Видео
Идентификатор : 1
Формат : AVC
Формат/Информация : Advanced Video Codec
Профиль формата : High@L4.1
Параметр CABAC формата : Да
Параметр ReFrames формата : 8 кадров
Идентификатор кодека : V_MPEG4/ISO/AVC
Продолжительность : 1 ч. 53 м.
Битрейт : 1699 Кбит/сек
Ширина : 1024 пикселя
Высота : 436 пикселей
Соотношение сторон : 2,35:1
Режим частоты кадров : Постоянный
Частота кадров : 23,976 кадра/сек
Цветовое пространство : YUV
Субдискретизация насыщенности : 4:2:0
Битовая глубина : 8 бит
Тип развёртки : Прогрессивная
Бит/(Пиксели*Кадры) : 0.159
Размер потока : 1,30 Гбайт (64%)
Библиотека кодирования : x264 core 129 r2245 bc13772
Настройки программы : cabac=1 / ref=8 / deblock=1:-2:-2 / analyse=0x3:0x133 / me=umh / subme=11 / psy=1 / psy_rd=1.00:0.00 / mixed_ref=1 / me_range=48 / chroma_me=1 / trellis=2 / 8x8dct=1 / cqm=0 / deadzone=21,11 / fast_pskip=0 / chroma_qp_offset=-2 / threads=3 / lookahead_threads=1 / sliced_threads=0 / nr=0 / decimate=0 / interlaced=0 / bluray_compat=0 / constrained_intra=0 / bframes=8 / b_pyramid=2 / b_adapt=2 / b_bias=0 / direct=3 / weightb=1 / open_gop=0 / weightp=2 / keyint=240 / keyint_min=23 / scenecut=40 / intra_refresh=0 / rc_lookahead=40 / rc=2pass / mbtree=1 / bitrate=1699 / ratetol=1.0 / qcomp=0.60 / qpmin=10 / qpmax=51 / qpstep=4 / cplxblur=20.0 / qblur=0.5 / ip_ratio=1.40 / aq=2:1.00
Язык : English
Default : Да
Forced : Нет

Аудио #1
Идентификатор : 2
Формат : AC-3
Формат/Информация : Audio Coding 3
Расширение режима : CM (complete main)
Параметр Endianness формата : Big
Идентификатор кодека : A_AC3
Продолжительность : 1 ч. 53 м.
Вид битрейта : Постоянный
Битрейт : 448 Кбит/сек
Каналы : 6 каналов
Расположение каналов : Front: L C R, Side: L R, LFE
Частота : 48,0 КГц
Битовая глубина : 16 бит
Метод сжатия : С потерями
Размер потока : 363 Мбайт (17%)
Заголовок : Есарев
Язык : Russian
Default : Да
Forced : Нет

Аудио #2
Идентификатор : 3
Формат : AC-3
Формат/Информация : Audio Coding 3
Расширение режима : CM (complete main)
Параметр Endianness формата : Big
Идентификатор кодека : A_AC3
Продолжительность : 1 ч. 53 м.
Вид битрейта : Постоянный
Битрейт : 448 Кбит/сек
Каналы : 6 каналов
Расположение каналов : Front: L C R, Side: L R, LFE
Частота : 48,0 КГц
Битовая глубина : 16 бит
Метод сжатия : С потерями
Размер потока : 363 Мбайт (17%)
Язык : English
Default : Нет
Forced : Нет

Текст #1
Идентификатор : 4
Формат : UTF-8
Идентификатор кодека : S_TEXT/UTF8
Идентификатор кодека/Информация : UTF-8 Plain Text
Язык : Russian
Default : Да
Forced : Нет

Текст #2
Идентификатор : 5
Формат : UTF-8
Идентификатор кодека : S_TEXT/UTF8
Идентификатор кодека/Информация : UTF-8 Plain Text
Язык : English
Default : Нет
Forced : Нет
Скриншот c названием фильма
Скриншоты
загрузка...
Правила, инструкции, FAQ!!!
Торрент  Добавлен [22 апр 2014, 11:39] Скачать торрент
Скачать торрент
[ Размер 10.87 КБ / Просмотров 16 ]

Статус  
 
Размер  2.05 ГБ
Приватный: Нет (DHT включён)
.torrent скачан  1
Как залить торрент? | Как скачать Torrent? | Как смотреть и слушать онлайн?  


     Отправить личное сообщение
   
Страница 1 из 1
Показать сообщения за:  Поле сортировки  
Начать новую тему Ответить на тему

   Похожие торренты   Автор   Ответы   Просмотры   Последнее сообщение 
В этой теме нет новых непрочитанных сообщений. Скачать торрент Донни Дарко / Donnie Darko (Ричард Келли / Richard Kelly) [2001 г., драма, мистика, фантастика, триллер, HDRip] (Режиссерская версия / Directors cut) MVO (Киномания)

в форуме Фантастика, Фэнтези, Размер: 1.46 ГБ, Здоровье: 100%

Anonymous

0
43|11

59
1

03 фев 2014, 12:33

Anonymous Перейти к последнему сообщению

В этой теме нет новых непрочитанных сообщений. Скачать торрент Донни Дарко / Donnie Darko (2001) BDRip 720p | Director's Cut

в форуме 720p | 1080p, Размер: 4.37 ГБ, Здоровье: 0%

Anonymous

0
0|0

31
0

27 фев 2014, 08:54

Anonymous Перейти к последнему сообщению

В этой теме нет новых непрочитанных сообщений. Скачать торрент Посылка / The Box (Ричард Келли / Richard Kelly) [2009, Фантастика, триллер, драма, детектив, BDRip] Dub

в форуме Фантастика, Фэнтези, Размер: 1.46 ГБ, Здоровье: 100%

Anonymous

0
34|11

49
0

01 апр 2014, 09:33

Anonymous Перейти к последнему сообщению

В этой теме нет новых непрочитанных сообщений. Скачать торрент Посылка / The Box (Ричард Келли / Richard Kelly) [2009 г., триллер, HDRip-AVC]

в форуме Фантастика, Фэнтези, Размер: 759.69 МБ, Здоровье: 100%

Anonymous

0
5|1

40
0

16 апр 2014, 07:47

Anonymous Перейти к последнему сообщению

В этой теме нет новых непрочитанных сообщений. Скачать торрент Посылка / The Box (Ричард Келли / Richard Kelly) [2009 г., фантастика, триллер, HDRip-AVC] Dub

в форуме Фантастика, Фэнтези, Размер: 1.36 ГБ, Здоровье: 100%

Anonymous

0
20|7

53
0

01 апр 2014, 09:33

Anonymous Перейти к последнему сообщению



Сейчас этот форум просматривают: нет зарегистрированных пользователей и гости: 1


Вы не можете начинать темы
Вы не можете отвечать на сообщения
Вы не можете редактировать свои сообщения
Вы не можете удалять свои сообщения
Вы не можете добавлять вложения

Перейти:  

!ВНИМАНИЕ!
 Ресурс не предоставляет электронные версии произведений, а занимается лишь коллекционированием и каталогизацией ссылок, присылаемых и публикуемых на форуме нашими читателями. Если вы являетесь правообладателем какого-либо представленного материала и не желаете чтобы ссылка на него находилась в нашем каталоге, свяжитесь с нами и мы незамедлительно удалим её. Файлы для обмена на трекере предоставлены пользователями сайта, и администрация не несёт ответственности за их содержание. Просьба не заливать файлы, защищенные авторскими правами, а также файлы нелегального содержания!