На всех торрентах на трекере установлена скидка на скачивание в размере 100 процентов(а).
 Возможность скачивания торрента НЕ зависит от ограничений при низком ратио, низком аплоаде, требуемом ратио или требуемом аплоаде.


Начать новую тему Ответить на тему
Статистика раздачи
Размер: 3.65 ГБ | Добавлен: 22 апр 2014, 11:38 | Скачали: 0
Сидеров: 56  [0 байт/сек]    Личеров: 19  [0 байт/сек]
Пред. тема | След. тема 

Автор
Сообщение

СообщениеДобавлено: 22 апр 2014, 11:38 

Год выпуска: 2004
Выпущено: США, Великобритания / Warner Bros. Pictures, Heyday Films, 1492 Pictures
Жанр: фэнтези, детектив, приключения, семейный
Год выпуска: 2005
Продолжительность: 02:37:05
Перевод (1): Профессиональный (полное дублирование)
CEE
Перевод (2): Профессиональный (многоголосый закадровый) Студия "Кравец"
Перевод (3): Профессиональный (двухголосый закадровый) Tycoon
Перевод (4): Оригинальная дорожка
Cубтитры: Русские, Украинские, Английские (внешние .srt*)
Режиссер:
Майк Ньюэлл / Mike Newell
В ролях:
Дэниэл Рэдклифф (Harry Potter), Руперт Гринт (Ron Weasley), Эмма Уотсон (Hermione Granger), Брендан Глисон (Professor Alastor «Mad­Eye» Moody), Алан Рикман (Severus Snape), Майкл Гэмбон (Albus Dumbledore), Рэйф Файнс (Lord Voldemort), Роберт Паттинсон (Cedric Diggory), Робби Колтрейн (Rubeus Hagrid), Мэгги Смит (Minerva McGonagall), Станислав Яневский (Viktor Krum), Клеманс Поэзи (Fleur Delacour)
Описание:
Гарри Поттер, Рон и Гермиона возвращаются на четвертый курс школы чародейства и волшебства «Хогвартс». При таинственных обстоятельствах Гарри отобран в число участников опасного соревнования — Турнира Трех Волшебников, однако проблема в том, что все его соперники — намного старше и сильнее.
К тому же, знаки указывают на возвращение Лорда Волдеморта. Вскоре Гарри предстоит побороться не только за победу в соревновании, но и, прежде всего, за свою жизнь…





Качество: BDRip [HARRY_POTTER_COLLECTION_HDCLUB]
Формат: AVI

Видео: 720x304 (2.37:1), 23.976 fps, XviD build 73 ~1531 kbps avg, 0.29 bit/pixel
Аудио #1: 48 kHz, AC3 Dolby Digital, 3/2 (L,C,R,l,r) + LFE ch, ~448.00 kbps avg (DUB) CEE
(2.18 Gb)
Аудио #2: 48 kHz, AC3 Dolby Digital, 3/2 (L,C,R,l,r) + LFE ch, ~448.00 kbps avg (MVO) Студия "Кравец" отдельно
Аудио #3: 48 kHz, AC3 Dolby Digital, 3/2 (L,C,R,l,r) + LFE ch, ~448.00 kbps avg (DVO) Tycoon отдельно
Аудио #4: 48 kHz, AC3 Dolby Digital, 3/2 (L,C,R,l,r) + LFE ch, ~448.00 kbps avg (ENG) отдельно
Скриншоты
MediaInfo
Код:
Код:
General
Complete name                            : D:\Garri_Potter_i_kubok_ognya_2005_BDRip_[2.18]_by_Dalemake.avi
Format                                   : AVI
Format/Info                              : Audio Video Interleave
Format profile                           : OpenDML
File size                                : 2.18 GiB
Duration                                 : 2h 37mn
Overall bit rate                         : 1 986 Kbps
Writing application                      : VirtualDubMod 1.5.10.3 | www.virtualdub-fr.org || (build 2550/release)
Writing library                          : VirtualDubMod build 2550/release

Video
ID                                       : 0
Format                                   : MPEG-4 Visual
Format profile                           : Advanced Simple@L5
Format settings, BVOP                    : 1
Format settings, QPel                    : No
Format settings, GMC                     : No warppoints
Format settings, Matrix                  : Custom
Codec ID                                 : XVID
Codec ID/Hint                            : XviD
Duration                                 : 2h 37mn
Bit rate                                 : 1 526 Kbps
Width                                    : 720 pixels
Height                                   : 304 pixels
Display aspect ratio                     : 2.35:1
Frame rate                               : 23.976 fps
Color space                              : YUV
Chroma subsampling                       : 4:2:0
Bit depth                                : 8 bits
Scan type                                : Progressive
Compression mode                         : Lossy
Bits/(Pixel*Frame)                       : 0.291
Stream size                              : 1.67 GiB (77%)
Writing library                          : XviD 73

Audio
ID                                       : 1
Format                                   : AC-3
Format/Info                              : Audio Coding 3
Mode extension                           : CM (complete main)
Format settings, Endianness              : Big
Codec ID                                 : 2000
Duration                                 : 2h 37mn
Bit rate mode                            : Constant
Bit rate                                 : 448 Kbps
Channel(s)                               : 6 channels
Channel positions                        : Front: L C R, Side: L R, LFE
Sampling rate                            : 48.0 KHz
Bit depth                                : 16 bits
Compression mode                         : Lossy
Stream size                              : 503 MiB (23%)
Alignment                                : Split accross interleaves
Interleave, duration                     : 42 ms (1.00 video frame)
Interleave, preload duration             : 500 ms
загрузка...
Правила, инструкции, FAQ!!!
Торрент  Добавлен [22 апр 2014, 11:38] Скачать торрент
Скачать торрент
[ Размер 19.6 КБ / Просмотров 14 ]

Статус  
 
Размер  3.65 ГБ
Приватный: Нет (DHT включён)
.torrent скачан  0
Как залить торрент? | Как скачать Torrent? | Как смотреть и слушать онлайн?  


     Отправить личное сообщение
   
Страница 1 из 1
Показать сообщения за:  Поле сортировки  
Начать новую тему Ответить на тему

   Похожие торренты   Автор   Ответы   Просмотры   Последнее сообщение 
В этой теме нет новых непрочитанных сообщений. Скачать торрент Проверен [iPhone] Гарри Поттер Коллекция / Harry Potter Collection (Крис Коламбус, Альфонсо Куарон, Майк Ньюэлл, Дэвид Йэтс / Chris Columbus, Alfonso Cuarón, Mike Newell, David Yates) [2001-2011, Фэнтези, детектив, приключения, семейный, HDRip, 480х200]

в форуме Фильмы для iPod, iPhone, iPad, Размер: 6.38 ГБ, Здоровье: 100%

Anonymous

0
56|19

30
0

11 май 2015, 01:32

Anonymous Перейти к последнему сообщению

В этой теме нет новых непрочитанных сообщений. Скачать торрент Проверен [VIDEO] Гарри Поттер: Коллекция / Harry Potter: Collection (Крис Коламбус, Альфонсо Куарон, Майк Ньюэлл, Дэвид Йэтс) [2001, 2002, 2004, 2005, 2007, 2009, 2010, 2011, фэнтези, приключения, семейный, HDRip] [MP4, 960x] Rus, Ukr, Original

в форуме Видео для смартфонов и КПК, Размер: 11.8 ГБ, Здоровье: 100%

Anonymous

0
56|20

51
0

02 авг 2014, 16:51

Anonymous Перейти к последнему сообщению

В этой теме нет новых непрочитанных сообщений. Скачать торрент Гарри Поттер и узник Азкабана / Harry Potter and the Prisoner of Azkaban (Альфонсо Куарон / Alfonso Cuarуn) [2004 г., фэнтези, приключения, семейный, BDRip] Dub

в форуме Фантастика, Фэнтези, Размер: 1.46 ГБ, Здоровье: 100%

Anonymous

0
34|11

42
0

10 фев 2014, 13:08

Anonymous Перейти к последнему сообщению

В этой теме нет новых непрочитанных сообщений. Скачать торрент Гарри Поттер и орден Феникса / Harry Potter and the Order of the Phoenix (Дэвид Йейтс / David Yates) [2007 г., фэнтези, приключения, семейный, BDRip] Dub

в форуме Фантастика, Фэнтези, Размер: 1.46 ГБ, Здоровье: 100%

Anonymous

0
34|11

43
0

02 апр 2014, 12:07

Anonymous Перейти к последнему сообщению

В этой теме нет новых непрочитанных сообщений. Скачать торрент Гарри Поттер и философский камень / Harry Potter and the Sorcerer's Stone (Крис Коламбус / Chris Columbus) [2001, Великобритания, Фэнтези, Приключения, Семейный, BDRip-AVC] Dub

в форуме Фантастика, Фэнтези, Размер: 3.71 ГБ, Здоровье: 100%

Anonymous

0
56|19

88
0

26 апр 2014, 20:57

Anonymous Перейти к последнему сообщению



Сейчас этот форум просматривают: нет зарегистрированных пользователей и гости: 1


Вы не можете начинать темы
Вы не можете отвечать на сообщения
Вы не можете редактировать свои сообщения
Вы не можете удалять свои сообщения
Вы не можете добавлять вложения

Перейти:  

!ВНИМАНИЕ!
 Ресурс не предоставляет электронные версии произведений, а занимается лишь коллекционированием и каталогизацией ссылок, присылаемых и публикуемых на форуме нашими читателями. Если вы являетесь правообладателем какого-либо представленного материала и не желаете чтобы ссылка на него находилась в нашем каталоге, свяжитесь с нами и мы незамедлительно удалим её. Файлы для обмена на трекере предоставлены пользователями сайта, и администрация не несёт ответственности за их содержание. Просьба не заливать файлы, защищенные авторскими правами, а также файлы нелегального содержания!