На всех торрентах на трекере установлена скидка на скачивание в размере 100 процентов(а).
 Возможность скачивания торрента НЕ зависит от ограничений при низком ратио, низком аплоаде, требуемом ратио или требуемом аплоаде.


Начать новую тему Ответить на тему
Статистика раздачи
Размер: 1.78 ГБ | Добавлен: 19 апр 2014, 18:49 | Скачали: 0
Сидеров: 27  [0 байт/сек]    Личеров: 9  [0 байт/сек]
Пред. тема | След. тема 

Автор
Сообщение

СообщениеДобавлено: 19 апр 2014, 18:49 

]Страна: США, Канада, Великобритания
Жанр: Фантастический комикс
Год выпуска: 2006
Продолжительность: 01:44:05

Перевод: Профессиональный (дублированный)
Cубтитры: русские, английские
Оригинальная аудиодорожка: английский

Режиссер: Бретт Рэтнер / Brett Ratner

В ролях: Хью Джекман
, Холли Берри, Иэн МакКеллен, Патрик Стюарт, Фамке Янссен, Анна Пакуин, Келси Грэммер, Джеймс Марсден, Ребекка Ромин, Шон Эшмор
Группа
желает всем приятного просмотра! Описание: Людям Икс, во главе с профессором Чарльзом Ксавьером, приходится вступить в битву с самой эволюцией в лице их воскресшего товарища по команде… Джин Грэй, возрожденная в облике Темного Феникса, представляет опасность не только для самой себя, но и для мутантов и для всей человеческой расы.
А когда наконец найдено возможное лекарство — то, что может предотвратить генетические мутации — наступает время решающей битвы между Людьми Икс, Братством Магнето и человечеством.

Сборы в мире: $459 256 008

Размер: 1/3 DVD
Исходник: BDRemux

Качество видео: BDRip
Формат видео: AVI

Видео: 720x304 (2.37:1), 23.976 fps, XviD MPEG-4 ~1541 kbps avg, 0.29 bit/pixel
Аудио: 48 kHz, AC3 Dolby Digital, 3/2 (L,C,R,l,r) + LFE ch, ~448.00 kbps avg
Аудио 2: 48 kHz, AC3 Dolby Digital, 3/2 (L,C,R,l,r) + LFE ch, ~448.00 kbps avg - ENG - отдельно
Формат субтитров: softsub (SRT)


MediaInfo
Общее
Полное имя : D:\Торренты\X-Men The Last Stand_R.G.Torrents.Ru_Drek\X-Men The Last Stand_R.G.Torrents.Ru_Drek.avi
Формат : AVI
Формат/Информация : Audio Video Interleave
Размер файла : 1,45 Гбайт
Продолжительность : 1 ч. 44 м.
Общий поток : 1998 Кбит/сек
Программа кодирования : VirtualDubModRus 1.5.10.2 (build 2542/release)
Библиотека кодирования : VirtualDubMod build 2542/release

Видео
Идентификатор : 0
Формат : MPEG-4 Visual
Профиль формата : Advanced Simple@L5
Параметр BVOP формата : 2
Параметр QPel формата : Нет
Параметр GMC формата : Без точки перехода
Параметр матрицы формата : Выборочная
Режим смешивания : Сжатый битовый поток
Идентификатор кодека : XVID
Идентификатор кодека/Подсказка : XviD
Продолжительность : 1 ч. 44 м.
Битрейт : 1541 Кбит/сек
Ширина : 720 пикселей
Высота : 304 пикселя
Соотношение сторон : 2,35:1
Частота кадров : 23,976 кадра/сек
Цветовое пространство : YUV
Субдискретизация насыщенности : 4:2:0
Битовая глубина : 8 бит
Тип развёртки : Прогрессивная
Метод сжатия : С потерями
Бит/(Пиксели*Кадры) : 0.294
Размер потока : 1,12 Гбайт (77%)
Библиотека кодирования : XviD 64

Аудио
Идентификатор : 1
Формат : AC-3
Формат/Информация : Audio Coding 3
Расширение режима : CM (complete main)
Идентификатор кодека : 2000
Продолжительность : 1 ч. 44 м.
Вид битрейта : Постоянный
Битрейт : 448 Кбит/сек
Каналы : 6 каналов
Расположение каналов : Front: L C R, Side: L R, LFE
Частота : 48,0 КГц
Битовая глубина : 16 бит
Метод сжатия : С потерями
Размер потока : 334 Мбайт (22%)
Выравнивание : Разделение по промежуткам
Продолжительность промежутка : 42 мс. (1,00 видеокадр)
Время предзагрузки промежутка : 500 мс.


Скриншоты
загрузка...
Правила, инструкции, FAQ!!!
Торрент  Добавлен [19 апр 2014, 18:49] Скачать торрент
Скачать торрент
[ Размер 36.62 КБ / Просмотров 13 ]

Статус  
 
Размер  1.78 ГБ
Приватный: Нет (DHT включён)
.torrent скачан  0
Как залить торрент? | Как скачать Torrent? | Как смотреть и слушать онлайн?  


     Отправить личное сообщение
   
Страница 1 из 1
Показать сообщения за:  Поле сортировки  
Начать новую тему Ответить на тему

   Похожие торренты   Автор   Ответы   Просмотры   Последнее сообщение 
В этой теме нет новых непрочитанных сообщений. Скачать торрент Красный Дракон / Red Dragon (Бретт Рэтнер / Brett Ratner) [2002, США, Триллер, драма, детектив, BDRip] Dub

в форуме Триллеры, Размер: 1.46 ГБ, Здоровье: 0%

Anonymous

0
0|0

54
0

25 апр 2014, 08:54

Anonymous Перейти к последнему сообщению

В этой теме нет новых непрочитанных сообщений. Скачать торрент После заката / After the Sunset (Бретт Рэтнер / Brett Ratner) [2004 г., боевик, криминальная комедия, драма, BDRip-AVC] Dub

в форуме Боевики, Размер: 2.4 ГБ, Здоровье: 100%

Anonymous

0
8|2

46
0

22 апр 2014, 11:51

Anonymous Перейти к последнему сообщению

В этой теме нет новых непрочитанных сообщений. Скачать торрент Проверен [iPad] Как украсть небоскреб / Tower Heist (Бретт Рэтнер / Brett Ratner ) [2011, США, Боевик, комедия, криминал, BDRip, SD (576p)] DUB + Original + sub (rus, eng)

в форуме Фильмы для iPod, iPhone, iPad, Размер: 1.8 ГБ, Здоровье: 100%

Гость

0
20|7

28
0

11 май 2015, 01:39

Гость Перейти к последнему сообщению

В этой теме нет новых непрочитанных сообщений. Скачать торрент Час пик 2 / Rush Hour 2 (Бретт Рэтнер / Brett Ratner) [2001, США, Гонконг, Комедия, Боевик, HDRip]

в форуме Комедии, Размер: 1.32 ГБ, Здоровье: 100%

Anonymous

0
8|2

50
0

24 апр 2014, 14:06

Anonymous Перейти к последнему сообщению

В этой теме нет новых непрочитанных сообщений. Скачать торрент Проверен [iPhone] Как украсть небоскреб / Tower Heist (Бретт Рэтнер / Bratt Ratner) [2011, комедия, криминал, BDRip, 720x320] Rus + Eng + Eng Subs

в форуме Фильмы для iPod, iPhone, iPad, Размер: 1.07 ГБ, Здоровье: 100%

Гость

0
5|2

35
0

18 май 2015, 10:37

Гость Перейти к последнему сообщению



Сейчас этот форум просматривают: нет зарегистрированных пользователей и гости: 1


Вы не можете начинать темы
Вы не можете отвечать на сообщения
Вы не можете редактировать свои сообщения
Вы не можете удалять свои сообщения
Вы не можете добавлять вложения

Перейти:  

!ВНИМАНИЕ!
 Ресурс не предоставляет электронные версии произведений, а занимается лишь коллекционированием и каталогизацией ссылок, присылаемых и публикуемых на форуме нашими читателями. Если вы являетесь правообладателем какого-либо представленного материала и не желаете чтобы ссылка на него находилась в нашем каталоге, свяжитесь с нами и мы незамедлительно удалим её. Файлы для обмена на трекере предоставлены пользователями сайта, и администрация не несёт ответственности за их содержание. Просьба не заливать файлы, защищенные авторскими правами, а также файлы нелегального содержания!