На всех торрентах на трекере установлена скидка на скачивание в размере 100 процентов(а).
 Возможность скачивания торрента НЕ зависит от ограничений при низком ратио, низком аплоаде, требуемом ратио или требуемом аплоаде.


Начать новую тему Ответить на тему
Статистика раздачи
Размер: 2.88 ГБ | Добавлен: 16 апр 2014, 07:50 | Скачали: 0
Сидеров: 0  [0 байт/сек]    Личеров: 0  [0 байт/сек]
Пред. тема | След. тема 

Автор
Сообщение

СообщениеДобавлено: 16 апр 2014, 07:50 

Район №9 / District 9


Страна: США
Жанр: фантастика, боевик, триллер
Год выпуска: 2009
Продолжительность: 01:52:15

Перевод: Одноголосый закадровый Михаил Яроцкий (kyberpunk) (ненормативная лексика)
Перевод 2: Профессиональный (дублированный) украинский
Cубтитры: русские, на надписи
Оригинальная аудиодорожка: английский
Режиссер: Нил Бломкамп / Neill Blomkamp
В ролях: Шарлто Копли, Джейсон Коуп, Натали Болтт, Сильвен Страйк, Элизабет Мкандави, Джон Самнер, Уильям Аллен Янг, Грег Мелвилл-Смит, Ник Блейк, Морена Буса Сесатса
Описание: Более 20 лет назад инопланетяне установили первый контакт с Землей. Люди были готовы ко всему — от враждебного вторжения до невероятного технологического прорыва. Ни того, ни другого не произошло. Пришельцы оказались беженцами со своей собственной планеты, и пока мировое сообщество решало, что с ними делать дальше, для них был организован временный лагерь в южноафриканском Районе N9.

Примечание: в фильме имеются в виду не морские креветки (prawn), а южноафриканский гигантский кузнечик, известный под названием «парктаунская креветка» (Parktown prawn). Интервьюируемая женщина-эксперт ошибается, думая, что пришельцев называют «креветками» потому, что они роются в отходах (морские креветки питаются донными организмами). Но полицейский Хоуп разъясняет ситуацию.


Рейтинг R - Детям до 17 лет обязательно присутствие родителей!
Доп.информация: перевод доступен, благодаря этим людям: mr_one_two, farivan, maxxsss, будулайроманов, kidman644, dikii. Работа со звуком — Perevodman.
Смотреть строго с включенными субтитрами!

Тип релиза: HDRip (Рип найден в сети, источник неизвестен)
Контейнер: AVI
Видео: 704x384 (1.85:1), 23.976 fps, XviD build 50 ~2308 kbps avg, 0.348 bit/pixel
Аудио: 48 kHz, AC3 Dolby Digital, 3/2 (L,C,R,l,r) + LFE ch, ~448.00 kbps avg (VO Михаил Яроцкий)
Аудио 2: 48 kHz, AC3 Dolby Digital, 3/2 (L,C,R,l,r) + LFE ch, ~448.00 kbps avg (Дублированный, украинский)
Аудио 3: 48 kHz, AC3 Dolby Digital, 3/2 (L,C,R,l,r) + LFE ch, ~448.00 kbps avg (Original english)
Формат субтитров: softsub (SRT)
MediaInfo
H:\VIDEO\Мои переводы\Disrict 9.kyberpunk\District 9.BDRip.VO.kyberpunk.avi
General
Complete name : H:\VIDEO\Мои переводы\Disrict 9.kyberpunk\District 9.BDRip.VO.kyberpunk.avi
Format : AVI
Format/Info : Audio Video Interleave
Format profile : OpenDML
File size : 2.88 GiB
Duration : 1h 52mn
Overall bit rate : 3 673 Kbps
Writing application : VirtualDubModRus 1.5.10.2 (build 2542/release)
Writing library : VirtualDubMod build 2542/release
Video #0
ID : 0
Format : MPEG-4 Visual
Format profile : Advanced Simple@L5
Format settings, BVOP : 1
Format settings, QPel : No
Format settings, GMC : No warppoints
Format settings, Matrix : Custom
Muxing mode : Packed bitstream
Codec ID : XVID
Codec ID/Hint : XviD
Duration : 1h 52mn
Bit rate : 2 308 Kbps
Width : 720 pixels
Height : 384 pixels
Display aspect ratio : 1.85:1
Frame rate : 23.976 fps
Color space : YUV
Chroma subsampling : 4:2:0
Bit depth : 8 bits
Scan type : Progressive
Compression mode : Lossy
Bits/(Pixel*Frame) : 0.348
Stream size : 1.81 GiB (63%)
Writing library : XviD 64
Audio #1
ID : 1
Format : AC-3
Format/Info : Audio Coding 3
Mode extension : CM (complete main)
Format settings, Endianness : Big
Codec ID : 2000
Duration : 1h 52mn
Bit rate mode : Constant
Bit rate : 448 Kbps
Channel(s) : 6 channels
Channel positions : Front: L C R, Side: L R, LFE
Sampling rate : 48.0 KHz
Bit depth : 16 bits
Compression mode : Lossy
Stream size : 360 MiB (12%)
Alignment : Split accross interleaves
Interleave, duration : 42 ms (1.00 video frame)
Interleave, preload duration : 500 ms
Audio #2
ID : 2
Format : AC-3
Format/Info : Audio Coding 3
Mode extension : CM (complete main)
Format settings, Endianness : Big
Codec ID : 2000
Duration : 1h 52mn
Bit rate mode : Constant
Bit rate : 448 Kbps
Channel(s) : 6 channels
Channel positions : Front: L C R, Side: L R, LFE
Sampling rate : 48.0 KHz
Bit depth : 16 bits
Compression mode : Lossy
Stream size : 360 MiB (12%)
Alignment : Split accross interleaves
Interleave, duration : 42 ms (1.00 video frame)
Interleave, preload duration : 500 ms
Audio #3
ID : 3
Format : AC-3
Format/Info : Audio Coding 3
Mode extension : CM (complete main)
Format settings, Endianness : Big
Codec ID : 2000
Duration : 1h 52mn
Bit rate mode : Constant
Bit rate : 448 Kbps
Channel(s) : 6 channels
Channel positions : Front: L C R, Side: L R, LFE
Sampling rate : 48.0 KHz
Bit depth : 16 bits
Compression mode : Lossy
Stream size : 360 MiB (12%)
Alignment : Split accross interleaves
Interleave, duration : 42 ms (1.00 video frame)
Interleave, preload duration : 500 ms
Скриншот c названием фильма
Скриншоты
загрузка...
Правила, инструкции, FAQ!!!
Торрент  Добавлен [16 апр 2014, 07:50] Скачать торрент
Скачать торрент
[ Размер 15.11 КБ / Просмотров 19 ]

Статус  
 
Размер  2.88 ГБ
Приватный: Нет (DHT включён)
.torrent скачан  0
Как залить торрент? | Как скачать Torrent? | Как смотреть и слушать онлайн?  


     Отправить личное сообщение
   
Страница 1 из 1
Показать сообщения за:  Поле сортировки  
Начать новую тему Ответить на тему

   Похожие торренты   Автор   Ответы   Просмотры   Последнее сообщение 
В этой теме нет новых непрочитанных сообщений. Скачать торрент Проверен [iPad] Район №9 / District 9 (Нил Бломкамп / Neill Blomkamp)[2009, фантастика, боевик, триллер, драма, BDRip 720p]

в форуме Фильмы для iPod, iPhone, iPad, Размер: 3 ГБ, Здоровье: 100%

Гость

0
19|6

39
0

13 май 2015, 23:57

Гость Перейти к последнему сообщению

В этой теме нет новых непрочитанных сообщений. Скачать торрент Район №9 / District 9 (Нил Бломкамп / Neill Blomkamp) [2009 г., фантастика, BDRip-AVC]

в форуме 720p | 1080p, Размер: 2.18 ГБ, Здоровье: 100%

Anonymous

0
58|19

56
0

19 фев 2014, 09:55

Anonymous Перейти к последнему сообщению

В этой теме нет новых непрочитанных сообщений. Скачать торрент [VIDEO] Элизиум: Рай не на Земле / Elysium (Нил Бломкамп / Neill Blomkamp) [2013, Фантастика, боевик, триллер, драма, WEB-DLRip] [MP4, 960x] Dub iTunes, Original

в форуме Видео для смартфонов и КПК, Размер: 1.15 ГБ, Здоровье: 100%

Anonymous

0
1|0

87
0

30 янв 2014, 06:46

Anonymous Перейти к последнему сообщению

В этой теме нет новых непрочитанных сообщений. Скачать торрент [VIDEO] Элизиум: Рай не на Земле / Elysium (Нил Бломкамп / Neill Blomkamp) [2013г, США, фантастика, боевик, триллер, драма, WEBRip][MP4, 480x]

в форуме Видео для смартфонов и КПК, Размер: 503.9 МБ, Здоровье: 0%

Anonymous

0
0|0

49
0

30 янв 2014, 06:47

Anonymous Перейти к последнему сообщению

В этой теме нет новых непрочитанных сообщений. Скачать торрент Проверен Район №9 / District 9 (2009) BDRip 720p

в форуме 720p | 1080p, Размер: 5.23 ГБ, Здоровье: 100%

Гость

0
114|47

35
203

31 дек 2014, 15:29

Гость Перейти к последнему сообщению



Сейчас этот форум просматривают: нет зарегистрированных пользователей и гости: 1


Вы не можете начинать темы
Вы не можете отвечать на сообщения
Вы не можете редактировать свои сообщения
Вы не можете удалять свои сообщения
Вы не можете добавлять вложения

Перейти:  

!ВНИМАНИЕ!
 Ресурс не предоставляет электронные версии произведений, а занимается лишь коллекционированием и каталогизацией ссылок, присылаемых и публикуемых на форуме нашими читателями. Если вы являетесь правообладателем какого-либо представленного материала и не желаете чтобы ссылка на него находилась в нашем каталоге, свяжитесь с нами и мы незамедлительно удалим её. Файлы для обмена на трекере предоставлены пользователями сайта, и администрация не несёт ответственности за их содержание. Просьба не заливать файлы, защищенные авторскими правами, а также файлы нелегального содержания!