На всех торрентах на трекере установлена скидка на скачивание в размере 100 процентов(а).
 Возможность скачивания торрента НЕ зависит от ограничений при низком ратио, низком аплоаде, требуемом ратио или требуемом аплоаде.


Начать новую тему Ответить на тему
Статистика раздачи
Размер: 2.9 ГБ | Добавлен: 02 апр 2014, 12:05 | Скачали: 0
Сидеров: 34  [0 байт/сек]    Личеров: 11  [0 байт/сек]
Пред. тема | След. тема 

Автор
Сообщение

СообщениеДобавлено: 02 апр 2014, 12:05 

Железный человек / Iron Man
«Героями не рождаются. Героями становятся»

Страна: США
Жанр: Фантастика, Боевик, Приключения
Год выпуска: 2008
Продолжительность: 02:06:01
Перевод #1: Авторский (Одноголосый закадровый, В.Королев
)
Перевод #2: Авторский (Одноголосый закадровый, А.Гаврилов)

Оригинальная аудиодорожка: Английский

Cубтитры: Русские (полные; форсированные) (отдельно), Английские (полные; форсированные) (отдельно)

Режиссер: Джон Фавро / Jon Favreau
В ролях: Роберт Дауни мл., Джефф Бриджес, Гвинет Пэлтроу, Терренс Ховард, Лесли Бибб, Шон Тоуб, Фаран Таир, Кларк Грегг, Джон Фавро, Саид Бадрия и др.


Описание:
Миллиардер изобретатель Тони Старк попадает в плен к Афганским террористам, которые пытаются заставить его создать оружие массового поражения. В тайне от своих захватчиков Старк конструирует высокотехнологичную киберброню, которая помогает ему сбежать. Однако по возвращению в США он узнаёт, что в совете директоров его фирмы плетётся заговор, чреватый страшными последствиями. Используя своё последнее изобретение, Старк пытается решить проблемы своей компании радикально…




Автор: AngelOfTrue


Качество видео: BDRip | Исходник Iron Man (2008) 1080p BD-Remux
Формат видео: AVI
Видео: XviD / 720x304 / 2.37:1 / 2125 kbps / 23,976 fps / 0.405 bit/pixel
Аудио #1: AC3 Dolby Digital / 48 KHz / 384 kbps / 3/2 (L,C,R,l,r) + LFE ch| AVO (В.Королев)
Аудио #2: AC3 Dolby Digital / 48 KHz / 384 kbps / 3/2 (L,C,R,l,r) + LFE ch| AVO (А.Гаврилов)
Аудио #3: AC3 Dolby Digital / 48 KHz / 384 kbps / 3/2 (L,C,R,l,r) + LFE ch| Original (English)
MediaInfo
Формат : AVI
Формат/Информация : Audio Video Interleave
Профиль формата : OpenDML
Размер файла : 2,90 Гбайт
Продолжительность : 2 ч. 6 м.
Общий поток : 3297 Кбит/сек
Программа кодирования : VirtualDubMod 1.5.10.3 | http://www.virtualdub-fr.org || (build 2550/release)
Библиотека кодирования : VirtualDubMod build 2550/release

Видео
Идентификатор : 0
Формат : MPEG-4 Visual
Профиль формата : Advanced Simple@L5
Параметр BVOP формата : 1
Параметр QPel формата : Нет
Параметр GMC формата : Без точки перехода
Параметр матрицы формата : Выборочная
Идентификатор кодека : XVID
Идентификатор кодека/Подсказка : XviD
Продолжительность : 2 ч. 6 м.
Битрейт : 2125 Кбит/сек
Ширина : 720 пикселей
Высота : 304 пикселя
Соотношение сторон : 2,35:1
Частота кадров : 23,976 кадра/сек
Цветовое пространство : YUV
Субдискретизация насыщенности : 4:2:0
Битовая глубина : 8 бит
Тип развёртки : Прогрессивная
Метод сжатия : С потерями
Бит/(Пиксели*Кадры) : 0.405
Размер потока : 1,87 Гбайт (64%)
Библиотека кодирования : XviD 73

Аудио #1
Идентификатор : 1
Формат : AC-3
Формат/Информация : Audio Coding 3
Расширение режима : CM (complete main)
Параметр Endianness формата : Big
Идентификатор кодека : 2000
Продолжительность : 2 ч. 6 м.
Вид битрейта : Постоянный
Битрейт : 384 Кбит/сек
Каналы : 6 каналов
Расположение каналов : Front: L C R, Side: L R, LFE
Частота : 48,0 КГц
Битовая глубина : 16 бит
Метод сжатия : С потерями
Размер потока : 346 Мбайт (12%)
Выравнивание : Разделение по промежуткам
Продолжительность промежутка : 42 мс. (1,00 видеокадр)
Время предзагрузки промежутка : 500 мс.
Заголовок : AVO (В.Королев)

Аудио #2
Идентификатор : 2
Формат : AC-3
Формат/Информация : Audio Coding 3
Расширение режима : CM (complete main)
Параметр Endianness формата : Big
Идентификатор кодека : 2000
Продолжительность : 2 ч. 6 м.
Вид битрейта : Постоянный
Битрейт : 384 Кбит/сек
Каналы : 6 каналов
Расположение каналов : Front: L C R, Side: L R, LFE
Частота : 48,0 КГц
Битовая глубина : 16 бит
Метод сжатия : С потерями
Размер потока : 346 Мбайт (12%)
Выравнивание : Разделение по промежуткам
Продолжительность промежутка : 42 мс. (1,00 видеокадр)
Время предзагрузки промежутка : 500 мс.
Заголовок : AVO (А.Гаврилов)

Аудио #3
Идентификатор : 3
Формат : AC-3
Формат/Информация : Audio Coding 3
Расширение режима : CM (complete main)
Параметр Endianness формата : Big
Идентификатор кодека : 2000
Продолжительность : 2 ч. 6 м.
Вид битрейта : Постоянный
Битрейт : 384 Кбит/сек
Каналы : 6 каналов
Расположение каналов : Front: L C R, Side: L R, LFE
Частота : 48,0 КГц
Битовая глубина : 16 бит
Метод сжатия : С потерями
Размер потока : 346 Мбайт (12%)
Выравнивание : Разделение по промежуткам
Продолжительность промежутка : 42 мс. (1,00 видеокадр)
Время предзагрузки промежутка : 500 мс.
Заголовок : Original

Скриншоты

загрузка...
Правила, инструкции, FAQ!!!
Торрент  Добавлен [02 апр 2014, 12:05] Скачать торрент
Скачать торрент
[ Размер 15.58 КБ / Просмотров 12 ]

Статус  
 
Размер  2.9 ГБ
Приватный: Нет (DHT включён)
.torrent скачан  0
Как залить торрент? | Как скачать Torrent? | Как смотреть и слушать онлайн?  


     Отправить личное сообщение
   
Страница 1 из 1
Показать сообщения за:  Поле сортировки  
Начать новую тему Ответить на тему

   Похожие торренты   Автор   Ответы   Просмотры   Последнее сообщение 
В этой теме нет новых непрочитанных сообщений. Скачать торрент Железный человек 2 / Iron Man 2 (Джон Фавро / Jon Favreau) [2010 г., фантастика, боевик, приключения, HDRip]

в форуме Фантастика, Фэнтези, Размер: 1.46 ГБ, Здоровье: 100%

Anonymous

0
14|4

53
0

03 апр 2014, 12:46

Anonymous Перейти к последнему сообщению

В этой теме нет новых непрочитанных сообщений. Скачать торрент Железный человек 2 / Iron Man 2 (Джон Фавро / Jon Favreau) [2010, США, боевик, фантастика, BDRip-AVC] Dub

в форуме Фантастика, Фэнтези, Размер: 3.12 ГБ, Здоровье: 0%

Anonymous

0
0|0

63
0

02 апр 2014, 12:06

Anonymous Перейти к последнему сообщению

В этой теме нет новых непрочитанных сообщений. Скачать торрент Человек в железной маске / The Man in the Iron Mask (Рэндалл Уоллес / Randall Wallace) [1998 г., боевик, драма, приключения, история, BDRip] MVO

в форуме Боевики, Размер: 1.46 ГБ, Здоровье: 0%

Anonymous

0
0|0

24
0

01 янв 2014, 23:48

Anonymous Перейти к последнему сообщению

В этой теме нет новых непрочитанных сообщений. Скачать торрент Проверен Человек из стали 3Д / Man of Steel 3D (Зак Снайдер / Zack Snyder) [2013, фантастика, фэнтези, боевик, приключения, BDRip-AVC] Dub (CEE) + Dub (Ukr) + Original (Eng) + Subs (Rus, Ukr, Eng) [Half OverUnder / Вертикальная анаморфная стереопара]

в форуме HD-Video в 3D, Размер: 16.21 ГБ, Здоровье: 100%

Anonymous

0
56|19

130
0

10 июл 2014, 08:36

Anonymous Перейти к последнему сообщению

В этой теме нет новых непрочитанных сообщений. Скачать торрент Фар Край / Far Cry (Уве Болл / Uwe Boll) [2008, Фантастика, боевик, приключения, BDRip] MVO (РенТВ) + MVO (R5) + DVO + Original Eng + Sub (Rus, Eng)

в форуме Фантастика, Фэнтези, Размер: 2.44 ГБ, Здоровье: 100%

Anonymous

0
27|9

68
0

17 фев 2014, 08:07

Anonymous Перейти к последнему сообщению



Сейчас этот форум просматривают: нет зарегистрированных пользователей и гости: 2


Вы не можете начинать темы
Вы не можете отвечать на сообщения
Вы не можете редактировать свои сообщения
Вы не можете удалять свои сообщения
Вы не можете добавлять вложения

Перейти:  

!ВНИМАНИЕ!
 Ресурс не предоставляет электронные версии произведений, а занимается лишь коллекционированием и каталогизацией ссылок, присылаемых и публикуемых на форуме нашими читателями. Если вы являетесь правообладателем какого-либо представленного материала и не желаете чтобы ссылка на него находилась в нашем каталоге, свяжитесь с нами и мы незамедлительно удалим её. Файлы для обмена на трекере предоставлены пользователями сайта, и администрация не несёт ответственности за их содержание. Просьба не заливать файлы, защищенные авторскими правами, а также файлы нелегального содержания!