На всех торрентах на трекере установлена скидка на скачивание в размере 100 процентов(а).
 Возможность скачивания торрента НЕ зависит от ограничений при низком ратио, низком аплоаде, требуемом ратио или требуемом аплоаде.


Начать новую тему Ответить на тему
Статистика раздачи
Размер: 1.46 ГБ | Добавлен: 02 апр 2014, 08:21 | Скачали: 0
Сидеров: 10  [0 байт/сек]    Личеров: 3  [0 байт/сек]
Пред. тема | След. тема 

Автор
Сообщение

СообщениеДобавлено: 02 апр 2014, 08:21 

Глазоборги / Видеть все / Eyeborgs


Страна: США, Великобритания
Жанр: Фантастика
Год выпуска: 2009
Продолжительность: 01:38:16

Перевод: Профессиональный (многоголосый закадровый) Лицензия
Cубтитры: нет
Режиссер: Ричард Клэбауг / Richard Clabaugh

В ролях: Эдриан Пол, Дэнни Трехо, Меган Блейк, Люк Эберл, Брэндон Адамс, Джош Гилберт, Джеймс Маршалл Кейс, Александра Димопоулос

Описание: Во избежание масштабной террористической атаки правительство США разрабатывает беспрецедентный план в области государственной безопасности: наводняет улицы городов тысячами автономных роботизированных видеокамер. Объединённые в единую оптическую сеть роботы-наблюдатели, прозванные «глазоборгами», становятся мощным инструментом по отслеживанию всех проявлений подозрительного поведения и нарушений правопорядка.
Но что, если контроль над таким «всевидящим оком» попадёт в плохие руки? Федеральный агент Рейнольдс всерьёз задался этим вопросом, когда при очередном расследовании столкнулся с тем, что далеко не всем видеоматериалам с ходячих камер можно доверять. В компании охочей до сенсаций репортёрши и непутёвого племянника президента Рейнольдс приступает к поиску тех, кто на самом деле управляет полчищами глазоборгов.





СЭМПЛ

Качество видео: HDRip(Исх. BD1080)
Формат видео: AVI

Видео: 720x304 (2.37:1), 25 fps, XviD MPEG-4 ~1666 kbps avg, 0.30 bit/pixel
Аудио: 48 kHz, AC3 Dolby Digital, 3/2 (L,C,R,l,r) + LFE ch, ~448 kbps

AviInfo
File: Videt vseo.chopper887.avi
Title: Videt vseo.chopper887
Author: chopper887
Copyleft: rutracker.org
Genre: Fantasy
Category: Movie
Filesize: 1492.38 Mb ( 1 564 874 752 bytes )
Play length: 01:38:16.279 (147407 frames)
Subtitles: Not Present
Video: 720x304 (2.37:1), 25 fps, XviD MPEG-4 ~1666 kbps avg, 0.30 bit/pixel
Audio: 48 kHz, AC3 Dolby Digital, 3/2 (L,C,R,l,r) + LFE ch, ~448 kbps
MediaInfo
General
Complete name : L:\Videt vseo.chopper887.avi
Format : AVI
Format/Info : Audio Video Interleave
File size : 1.46 GiB
Duration : 1h 38mn
Overall bit rate : 2 123 Kbps
Movie name : Videt vseo.chopper887
Director : chopper887
Genre : Fantasy
Writing application : VirtualDubMod 1.5.10.3 | http://www.virtualdub-fr.org || (build 2550/release)
Original source form/Name : Movie
Copyright : rutracker.org

Video
ID : 0
Format : MPEG-4 Visual
Format profile : Advanced Simple@L5
Format settings, BVOP : 1
Format settings, QPel : No
Format settings, GMC : No warppoints
Format settings, Matrix : Custom
Muxing mode : Packed bitstream
Codec ID : XVID
Codec ID/Hint : XviD
Duration : 1h 38mn
Bit rate : 1 667 Kbps
Width : 720 pixels
Height : 304 pixels
Display aspect ratio : 2.35:1
Frame rate : 25.000 fps
Color space : YUV
Chroma subsampling : 4:2:0
Bit depth : 8 bits
Scan type : Progressive
Compression mode : Lossy
Bits/(Pixel*Frame) : 0.305
Stream size : 1.14 GiB (78%)
Writing library : XviD 1.2.1 (UTC 2008-12-04)

Audio
ID : 1
Format : AC-3
Format/Info : Audio Coding 3
Mode extension : CM (complete main)
Codec ID : 2000
Duration : 1h 38mn
Bit rate mode : Constant
Bit rate : 448 Kbps
Channel(s) : 6 channels
Channel positions : Front: L C R, Side: L R, LFE
Sampling rate : 48.0 KHz
Bit depth : 16 bits
Compression mode : Lossy
Delay relative to video : 800ms
Stream size : 314 MiB (21%)
Alignment : Split accross interleaves
Interleave, duration : 40 ms (1.00 video frame)
Interleave, preload duration : 500 ms
Скриншоты
загрузка...
Правила, инструкции, FAQ!!!
Торрент  Добавлен [02 апр 2014, 08:21] Скачать торрент
Скачать торрент
[ Размер 15.07 КБ / Просмотров 27 ]

Статус  
 
Размер  1.46 ГБ
Приватный: Нет (DHT включён)
.torrent скачан  0
Как залить торрент? | Как скачать Torrent? | Как смотреть и слушать онлайн?  


     Отправить личное сообщение
   
Страница 1 из 1
Показать сообщения за:  Поле сортировки  
Начать новую тему Ответить на тему

   Похожие торренты   Автор   Ответы   Просмотры   Последнее сообщение 
В этой теме нет новых непрочитанных сообщений. Скачать торрент Посылка / The Box (Ричард Келли / Richard Kelly) [2009 г., фантастика, триллер, HDRip-AVC] Dub

в форуме Фантастика, Фэнтези, Размер: 1.36 ГБ, Здоровье: 100%

Anonymous

0
20|7

54
0

01 апр 2014, 09:33

Anonymous Перейти к последнему сообщению

В этой теме нет новых непрочитанных сообщений. Скачать торрент Проверен [iPod] Человек с Земли / The Man from Earth (Ричард Шенкман / Richard Schenkman) [2007, фантастика, драма, HDRip]

в форуме Фильмы для iPod, iPhone, iPad, Размер: 381.18 МБ, Здоровье: 100%

Anonymous

0
2|1

37
0

18 май 2015, 10:46

Anonymous Перейти к последнему сообщению

В этой теме нет новых непрочитанных сообщений. Скачать торрент Проверен [iPhone] Человек с Земли / The Man from Earth (Ричард Шенкман / Richard Schenkman) [2007, фантастика, драма, HDRip, 480x272]

в форуме Фильмы для iPod, iPhone, iPad, Размер: 474.77 МБ, Здоровье: 100%

Anonymous

0
3|1

47
1

18 май 2015, 10:53

Anonymous Перейти к последнему сообщению

В этой теме нет новых непрочитанных сообщений. Скачать торрент Посылка / The Box (Ричард Келли / Richard Kelly) [2009, Фантастика, триллер, драма, детектив, BDRip] Dub

в форуме Фантастика, Фэнтези, Размер: 1.46 ГБ, Здоровье: 100%

Anonymous

0
34|11

50
0

01 апр 2014, 09:33

Anonymous Перейти к последнему сообщению

В этой теме нет новых непрочитанных сообщений. Скачать торрент Посылка / The Box (Ричард Келли / Richard Kelly) [2009 г., триллер, HDRip-AVC]

в форуме Фантастика, Фэнтези, Размер: 759.69 МБ, Здоровье: 100%

Anonymous

0
5|1

41
0

16 апр 2014, 07:47

Anonymous Перейти к последнему сообщению



Сейчас этот форум просматривают: нет зарегистрированных пользователей и гости: 1


Вы не можете начинать темы
Вы не можете отвечать на сообщения
Вы не можете редактировать свои сообщения
Вы не можете удалять свои сообщения
Вы не можете добавлять вложения

Перейти:  

!ВНИМАНИЕ!
 Ресурс не предоставляет электронные версии произведений, а занимается лишь коллекционированием и каталогизацией ссылок, присылаемых и публикуемых на форуме нашими читателями. Если вы являетесь правообладателем какого-либо представленного материала и не желаете чтобы ссылка на него находилась в нашем каталоге, свяжитесь с нами и мы незамедлительно удалим её. Файлы для обмена на трекере предоставлены пользователями сайта, и администрация не несёт ответственности за их содержание. Просьба не заливать файлы, защищенные авторскими правами, а также файлы нелегального содержания!