На всех торрентах на трекере установлена скидка на скачивание в размере 100 процентов(а).
 Возможность скачивания торрента НЕ зависит от ограничений при низком ратио, низком аплоаде, требуемом ратио или требуемом аплоаде.


Начать новую тему Ответить на тему
Статистика раздачи
Размер: 2.18 ГБ | Добавлен: 01 апр 2014, 09:33 | Скачали: 1
Сидеров: 2  [0 байт/сек]    Личеров: 1  [0 байт/сек]
Пред. тема | След. тема 

Автор
Сообщение

СообщениеДобавлено: 01 апр 2014, 09:33 

Потустороннее / Hereafter


Страна: США
Жанр: фэнтези, драма
Год выпуска: 2010
Продолжительность: 02:09:02
Перевод: Профессиональный (многоголосый) Лицензия
Cубтитры: Русские, английские (форсированные, полные)
Оригинальная аудиодорожка: английский
Режиссер: Клинт Иствуд / Clint Eastwood
В ролях: Мэтт Дэймон, Сесиль де Франс, Тьерри Новик, Синди Майо Дэвис, Лиза Гриффитс, Джессика Гриффитс, Фергюсон Рейд, Дерек Сакакура, Джей Мор, Ричард Кайнд
Описание: Три параллельные и вскоре пересекающиеся истории о людях, познавших смерть. Французская журналистка, пережившая цунами в 2004 году, и наркоманка, потерявшая в автокатастрофе одного из десятилетних сыновей-близнецов, обращаются к умеющему разговаривать с мертвыми человеку в поисках ответов и утешения.

Качество видео: BDRip-AVC [Исх. Blu-Ray 1080p CHDBits]
Формат видео: MKV
Видео: AVC; 1040x432; 2.40:1; 23,976 fps; 1654 kb/s
Аудио: AC3 Dolby Digital; 48 KHz; 384 kb/s; 3/2 (L,C,R,l,r) LFE ch
Аудио 2: AC3 Dolby Digital; 48 KHz; 384 kb/s; 3/2 (L,C,R,l,r) LFE ch, ENG
Формат субтитров: softsub (SRT)
СЭМПЛ

MediaInfo / log
x264
---[NoImage] avs [info]: 1040x432p 1:1 @ 24000/1001 fps (cfr)
---[NoImage] x264 [info]: using SAR=1/1
---[NoImage] x264 [info]: using cpu capabilities: MMX2 SSE2Fast FastShuffle SSEMisalign LZCNT
---[NoImage] x264 [info]: profile High, level 4.0
---[NoImage]
---[NoImage] x264 [info]: frame I:1406 Avg QP:17.71 size: 55171 PSNR Mean Y:45.97 U:49.89 V:51.06 Avg:46.96 Global:45.95
---[NoImage] x264 [info]: frame P:39029 Avg QP:20.29 size: 16707 PSNR Mean Y:43.82 U:48.63 V:49.88 Avg:44.92 Global:43.56
---[NoImage] x264 [info]: frame B:145202 Avg QP:21.75 size: 5975 PSNR Mean Y:43.20 U:48.37 V:49.78 Avg:44.36 Global:43.26
---[NoImage] x264 [info]: consecutive B-frames: 1.5% 1.9% 5.6% 26.1% 19.9% 29.3% 7.2% 6.5% 2.0%
---[NoImage] x264 [info]: mb I I16..4: 13.8% 64.2% 22.0%
---[NoImage] x264 [info]: mb P I16..4: 1.9% 7.9% 1.3% P16..4: 51.6% 21.2% 5.1% 0.4% 0.3% skip:10.3%
---[NoImage] x264 [info]: mb B I16..4: 0.1% 0.6% 0.1% B16..8: 39.4% 8.7% 2.4% direct: 4.7% skip:44.0% L0:42.7% L1:46.0% BI:11.3%
---[NoImage] x264 [info]: 8x8 transform intra:70.2% inter:58.5%
---[NoImage] x264 [info]: direct mvs spatial:98.1% temporal:1.9%
---[NoImage] x264 [info]: coded y,uvDC,uvAC intra: 79.1% 72.1% 46.6% inter: 20.7% 17.1% 1.8%
---[NoImage] x264 [info]: i16 v,h,dc,p: 49% 15% 14% 23%
---[NoImage] x264 [info]: i8 v,h,dc,ddl,ddr,vr,hd,vl,hu: 11% 9% 10% 9% 13% 12% 13% 11% 13%
---[NoImage] x264 [info]: i4 v,h,dc,ddl,ddr,vr,hd,vl,hu: 14% 9% 5% 8% 14% 13% 13% 11% 13%
---[NoImage] x264 [info]: i8c dc,h,v,p: 42% 26% 20% 11%
---[NoImage] x264 [info]: Weighted P-Frames: Y:3.3% UV:1.8%
---[NoImage] x264 [info]: ref P L0: 43.9% 11.6% 19.3% 6.6% 5.9% 4.1% 4.0% 2.2% 2.3% 0.2% 0.0%
---[NoImage] x264 [info]: ref B L0: 70.8% 13.2% 6.4% 3.4% 2.4% 2.1% 1.2% 0.4%
---[NoImage] x264 [info]: ref B L1: 92.1% 7.9%
---[NoImage] x264 [info]: SSIM Mean Y:0.9783129 (16.638db)
---[NoImage] x264 [info]: PSNR Mean Y:43.353 U:48.435 V:49.807 Avg:44.493 Global:43.337 kb/s:1650.23
General
Unique ID : 201788408844380348139790171443772773095 (0x97CF08ADD34B52DDA068F27A3A87D2E7)
Complete name : I:\Other\Potustoronnee.2010.MVO.BDRip.x264_Vaippp.mkv
Format : Matroska
File size : 2.18 GiB
Duration : 2h 9mn
Overall bit rate : 2 420 Kbps
Movie name : Potustoronnee / 2010 / Release by Vaippp / СПАМ Team
Encoded date : UTC 2011-05-25 12:59:21
Writing application : mkvmerge v4.8.0 ('I Got The...') сборка от May 24 2011 03:12:58
Writing library : libebml v1.2.0 libmatroska v1.1.0

Video
ID : 1
Format : AVC
Format/Info : Advanced Video Codec
Format profile : High@L4.0
Format settings, CABAC : Yes
Format settings, ReFrames : 9 frames
Codec ID : V_MPEG4/ISO/AVC
Duration : 2h 9mn
Bit rate : 1 654 Kbps
Width : 1 040 pixels
Height : 432 pixels
Display aspect ratio : 2.40:1
Frame rate : 23.976 fps
Color space : YUV
Chroma subsampling : 4:2:0
Bit depth : 8 bits
Scan type : Progressive
Bits/(Pixel*Frame) : 0.154
Stream size : 1.45 GiB (66%)
Title : BDRip by Vaippp
Writing library : x264 core 112 r1867 22bfd31
Encoding settings : cabac=1 / ref=9 / deblock=1:-2:-1 / analyse=0x3:0x133 / me=umh / subme=9 / psy=1 / psy_rd=1.00:0.12 / mixed_ref=1 / me_range=32 / chroma_me=1 / trellis=2 / 8x8dct=1 / cqm=0 / deadzone=21,11 / fast_pskip=0 / chroma_qp_offset=-3 / threads=4 / sliced_threads=0 / nr=0 / decimate=1 / interlaced=0 / constrained_intra=0 / bframes=8 / b_pyramid=2 / b_adapt=2 / b_bias=0 / direct=3 / weightb=1 / open_gop=0 / weightp=2 / keyint=250 / keyint_min=23 / scenecut=40 / intra_refresh=0 / rc_lookahead=40 / rc=2pass / mbtree=0 / bitrate=1654 / ratetol=1.0 / qcomp=0.70 / qpmin=10 / qpmax=51 / qpstep=4 / cplxblur=20.0 / qblur=0.5 / vbv_maxrate=24000 / vbv_bufsize=30000 / nal_hrd=none / ip_ratio=1.40 / pb_ratio=1.30 / aq=1:0.80 / zones=176291,185636,q=35
Language : English

Audio #1
ID : 2
Format : AC-3
Format/Info : Audio Coding 3
Mode extension : CM (complete main)
Codec ID : A_AC3
Duration : 2h 9mn
Bit rate mode : Constant
Bit rate : 384 Kbps
Channel(s) : 6 channels
Channel positions : Front: L C R, Side: L R, LFE
Sampling rate : 48.0 KHz
Bit depth : 16 bits
Compression mode : Lossy
Delay relative to video : 30ms
Stream size : 354 MiB (16%)
Title : MVO R5
Language : Russian

Audio #2
ID : 3
Format : AC-3
Format/Info : Audio Coding 3
Mode extension : CM (complete main)
Codec ID : A_AC3
Duration : 2h 9mn
Bit rate mode : Constant
Bit rate : 384 Kbps
Channel(s) : 6 channels
Channel positions : Front: L C R, Side: L R, LFE
Sampling rate : 48.0 KHz
Bit depth : 16 bits
Compression mode : Lossy
Stream size : 354 MiB (16%)
Title : Original
Language : English

Text #1
ID : 4
Format : UTF-8
Codec ID : S_TEXT/UTF8
Codec ID/Info : UTF-8 Plain Text
Language : Russian

Text #2
ID : 5
Format : UTF-8
Codec ID : S_TEXT/UTF8
Codec ID/Info : UTF-8 Plain Text
Title : Forced
Language : English

Text #3
ID : 6
Format : UTF-8
Codec ID : S_TEXT/UTF8
Codec ID/Info : UTF-8 Plain Text
Title : Full
Language : English
Скриншоты
загрузка...
Правила, инструкции, FAQ!!!
Торрент  Добавлен [01 апр 2014, 09:33] Скачать торрент
Скачать торрент
[ Размер 22.33 КБ / Просмотров 12 ]

Статус  
 
Размер  2.18 ГБ
Приватный: Нет (DHT включён)
.torrent скачан  1
Как залить торрент? | Как скачать Torrent? | Как смотреть и слушать онлайн?  


     Отправить личное сообщение
   
Страница 1 из 1
Показать сообщения за:  Поле сортировки  
Начать новую тему Ответить на тему

   Похожие торренты   Автор   Ответы   Просмотры   Последнее сообщение 
В этой теме нет новых непрочитанных сообщений. Скачать торрент Проверен [iPad] Непрощенный / Unforgiven (Клинт Иствуд/ Clint Eastwood) [1992, США, Драма, вестерн, BDRip, 576p] Dub + MVO + Original + rus sub

в форуме Фильмы для iPod, iPhone, iPad, Размер: 2.4 ГБ, Здоровье: 100%

Anonymous

0
14|5

24
0

11 май 2015, 01:32

Anonymous Перейти к последнему сообщению

В этой теме нет новых непрочитанных сообщений. Скачать торрент Малышка на миллион / Million Dollar Baby (Клинт Иствуд / Clint Eastwood) [2004, США, драма, спорт, BDRip-AVC] Dub

в форуме Драмы, Мелодрамы, Размер: 4.28 ГБ, Здоровье: 100%

Anonymous

0
50|17

57
1

22 апр 2014, 11:41

Anonymous Перейти к последнему сообщению

В этой теме нет новых непрочитанных сообщений. Скачать торрент Гран Торино / Gran Torino (Клинт Иствуд / Clint Eastwood) [2008, США, комедия, драма, криминал, BDRip]

в форуме Драмы, Мелодрамы, Размер: 3.23 ГБ, Здоровье: 0%

Anonymous

0
0|0

29
0

17 фев 2014, 08:04

Anonymous Перейти к последнему сообщению

В этой теме нет новых непрочитанных сообщений. Скачать торрент Проверен [iPad] Подмена / Changeling (Клинт Иствуд / Clint Eastwood) [2008 г., Драма, детектив, история, BDRip, 720p]

в форуме Фильмы для iPod, iPhone, iPad, Размер: 3.64 ГБ, Здоровье: 100%

Гость

0
33|9

60
4

11 май 2015, 01:25

Гость Перейти к последнему сообщению

В этой теме нет новых непрочитанных сообщений. Скачать торрент Кровавая работа / Анализ крови / Blood Work (Клинт Иствуд / Clint Eastwood) [2002, Триллер, драма, криминал, детектив, BDRip]

в форуме Триллеры, Размер: 2.05 ГБ, Здоровье: 100%

Anonymous

0
2|1

52
0

29 апр 2014, 13:53

Anonymous Перейти к последнему сообщению



Сейчас этот форум просматривают: нет зарегистрированных пользователей и гости: 1


Вы не можете начинать темы
Вы не можете отвечать на сообщения
Вы не можете редактировать свои сообщения
Вы не можете удалять свои сообщения
Вы не можете добавлять вложения

Перейти:  

!ВНИМАНИЕ!
 Ресурс не предоставляет электронные версии произведений, а занимается лишь коллекционированием и каталогизацией ссылок, присылаемых и публикуемых на форуме нашими читателями. Если вы являетесь правообладателем какого-либо представленного материала и не желаете чтобы ссылка на него находилась в нашем каталоге, свяжитесь с нами и мы незамедлительно удалим её. Файлы для обмена на трекере предоставлены пользователями сайта, и администрация не несёт ответственности за их содержание. Просьба не заливать файлы, защищенные авторскими правами, а также файлы нелегального содержания!