На всех торрентах на трекере установлена скидка на скачивание в размере 100 процентов(а).
 Возможность скачивания торрента НЕ зависит от ограничений при низком ратио, низком аплоаде, требуемом ратио или требуемом аплоаде.


Начать новую тему Ответить на тему
Статистика раздачи
Размер: 2.93 ГБ | Добавлен: 14 мар 2014, 08:30 | Скачали: 98
Сидеров: 14  [0 байт/сек]    Личеров: 5  [0 байт/сек]
Пред. тема | След. тема 

Автор
Сообщение

СообщениеДобавлено: 14 мар 2014, 08:30 

Название: Арабские приключения / Арабские ночи
Оригинальное название: Arabian nights
Год выхода: 2000
Жанр: Фэнтези, приключения, семейный
Режиссер: Стив Бэррон / Steve Barron

В ролях: Мили Эвиталь, Алан Бэйтс, Джеймс Фрэйн, Чеки Карио, Джейсон Скотт Ли, Джон Легуизамо, Ванесса Мэй

О фильме: «Когда опускается ночь, вот тогда и начинаются приключения!»
Обезумевший от страха султан, которому во всём видится измена, должен жениться, чтобы сохранить трон. Дочь его визиря, Шахерезада, влюбившаяся в султана ещё когда они оба были подростками, вызывается стать его супругой, хотя и знает, что её ждёт смерть. Чтобы отвлечь мужа от кошмарных снов и подозрений, она начинает рассказывать ему сказки... Если молодой султан Шахрияр до следующего полнолуния не найдет себе жену, трон перейдет к его брату-близнецу Шахзенану. После того, как первая жена пыталась его убить, Шахрияр не доверяет женщинам, но все же посылает старого визиря Джафара на поиски невесты, намереваясь казнить ее на следующее же утро после свадьбы. И случилось так, что прекрасная дочь визиря, Шахерезада, сама вызвалась пойти замуж за султана. Надеясь отсрочить казнь, в ночь после свадьбы она начинает рассказывать Шахрияру увлекательныеистории, в которых оживает невероятный сказочный мир. А тем временем коварный Шахзенан собирает армию, готовясь выступить против брата...



Страна: США
Студия: Golden Horn Films, Turkey (Production Services), Hallmark Entertainment, International Traders…
Продолжительность: 02:57:24
Перевод: Профессиональный (многоголосый закадровый) - CP Digital + Профессиональный (двухголосый, закадровый) – ЕкатеринбургАртВидео


Кодек: h.264
Качество: DVDRip-AVC
Видео: AVC, 1024 x 820, ~1740 kbps
Звук #1: Русский: AC-3, 2 ch, 192 kbps (CP Digital)
Звук #2: Aнглийский: AC-3, 2 ch, 192 kbps
Звук #3: Русский: AC-3, 2 ch, 192 kbps (ЕкатеринбургАртВидео)

Семпл

Общее
Уникальный идентификатор : 94757893983868666218880187598173839352 (0x4749B4E0663356D82E747DDEB8431FF8)
Полное имя : G:Арабские приключения Арабские ночи Arabian nights [2000 г.,DVDRip-AVCArabian nights 2000 DVDRip-AVC.mkv
Формат : Matroska
Версия формата : Version 2
Размер файла : 2,93 Гбайт
Продолжительность : 2 ч. 57 м.
Режим общего битрейта : Переменный
Общий поток : 2363 Кбит/сек
Программа кодирования : Lavf52.84.0
Библиотека кодирования : Lavf52.84.0

Видео
Идентификатор : 1
Формат : AVC
Формат/Информация : Advanced Video Codec
Профиль формата : High@L3.1
Параметр CABAC формата : Да
Параметр ReFrames формата : 1 кадр
Параметр GOP формата : M=1, N=15
Идентификатор кодека : V_MPEG4/ISO/AVC
Продолжительность : 2 ч. 57 м.
Вид битрейта : Переменный
Битрейт : 1740 Кбит/сек
Максимальный битрейт : 2667 Кбит/сек
Ширина : 1024 пикселя
Высота : 820 пикселей
Соотношение сторон : 5:4
Режим частоты кадров : Постоянный
Частота кадров : 25,000 кадров/сек
Цветовое пространство : YUV
Субдискретизация насыщенности : 4:2:0
Битовая глубина : 8 бит
Тип развёртки : Прогрессивная
Бит/(Пиксели*Кадры) : 0.083
Размер потока : 2,16 Гбайт (74%)
Default : Да
Forced : Нет

Аудио #1
Идентификатор : 2
Формат : AC-3
Формат/Информация : Audio Coding 3
Расширение режима : CM (complete main)
Параметр Endianness формата : Big
Идентификатор кодека : A_AC3
Продолжительность : 2 ч. 57 м.
Вид битрейта : Постоянный
Битрейт : 192 Кбит/сек
Каналы : 2 канала
Расположение каналов : Front: L R
Частота : 48,0 КГц
Битовая глубина : 16 бит
Метод сжатия : С потерями
Задержка видео : 40 мс.
Размер потока : 244 Мбайт (8%)
Default : Да
Forced : Нет

Аудио #2
Идентификатор : 3
Формат : AC-3
Формат/Информация : Audio Coding 3
Расширение режима : CM (complete main)
Параметр Endianness формата : Big
Идентификатор кодека : A_AC3
Продолжительность : 2 ч. 57 м.
Вид битрейта : Постоянный
Битрейт : 192 Кбит/сек
Каналы : 2 канала
Расположение каналов : Front: L R
Частота : 48,0 КГц
Битовая глубина : 16 бит
Метод сжатия : С потерями
Задержка видео : 40 мс.
Размер потока : 244 Мбайт (8%)
Default : Да
Forced : Нет

Аудио #3
Идентификатор : 4
Формат : AC-3
Формат/Информация : Audio Coding 3
Расширение режима : CM (complete main)
Параметр Endianness формата : Big
Идентификатор кодека : A_AC3
Продолжительность : 2 ч. 57 м.
Вид битрейта : Постоянный
Битрейт : 192 Кбит/сек
Каналы : 2 канала
Расположение каналов : Front: L R
Частота : 48,0 КГц
Битовая глубина : 16 бит
Метод сжатия : С потерями
Задержка видео : 40 мс.
Размер потока : 244 Мбайт (8%)
Default : Да
Forced : Нет
загрузка...
Правила, инструкции, FAQ!!!
Торрент  Добавлен [14 мар 2014, 08:30] Скачать торрент
Скачать торрент
[ Размер 15.46 КБ / Просмотров 7 ]

Статус  
 
Размер  2.93 ГБ
Приватный: Нет (DHT включён)
.torrent скачан  98
Как залить торрент? | Как скачать Torrent? | Как смотреть и слушать онлайн?  


     Отправить личное сообщение
   
Страница 1 из 1
Показать сообщения за:  Поле сортировки  
Начать новую тему Ответить на тему

   Похожие торренты   Автор   Ответы   Просмотры   Последнее сообщение 
В этой теме нет новых непрочитанных сообщений. Скачать торрент Проверен VA - Арабские ночи (Инструментальная музыка 2 CD) 2000 г.[MP3|320 кб/с]<Instrumental>

в форуме Instrumental/New Age/Meditative/Relax, Размер: 362.59 МБ, Здоровье: 100%

Гость

0
8|1

29
1

07 апр 2015, 22:48

Гость Перейти к последнему сообщению

В этой теме нет новых непрочитанных сообщений. Скачать торрент Проверен Арабские сказки 1001 ночи [Семен Мендельсон, 2008 г., 128 kbps, MP3]

в форуме Детские литература, Размер: 600.87 МБ, Здоровье: 100%

Гость

0
23|6

239
2

23 фев 2015, 11:26

Гость Перейти к последнему сообщению

В этой теме нет новых непрочитанных сообщений. Скачать торрент Проверен Salloum H. / Саллум Х. - The Arabian Nights Cookbook / Поваренная книга арабских ночей [2010, PDF, ENG]

в форуме Кулинария, Размер: 5.49 МБ, Здоровье: 0%

Anonymous

0
0|0

0
0

19 окт 2016, 23:06

Anonymous Перейти к последнему сообщению

В этой теме нет новых непрочитанных сообщений. Скачать торрент Проверен Мои черничные ночи / My Blueberry Nights (2007) HDRip | Р

в форуме Драмы, Мелодрамы, Размер: 742.69 МБ, Здоровье: 100%

Гость

0
12|0

37
101

04 дек 2014, 19:34

Гость Перейти к последнему сообщению

В этой теме нет новых непрочитанных сообщений. Скачать торрент Проверен Мои черничные ночи / My Blueberry Nights (2007) BDRip 1080p | P, P2

в форуме 720p | 1080p, Размер: 7.5 ГБ, Здоровье: 100%

Anonymous

0
20|5

28
43

04 дек 2014, 19:37

Anonymous Перейти к последнему сообщению



Сейчас этот форум просматривают: нет зарегистрированных пользователей и гости: 1


Вы не можете начинать темы
Вы не можете отвечать на сообщения
Вы не можете редактировать свои сообщения
Вы не можете удалять свои сообщения
Вы не можете добавлять вложения

Перейти:  

!ВНИМАНИЕ!
 Ресурс не предоставляет электронные версии произведений, а занимается лишь коллекционированием и каталогизацией ссылок, присылаемых и публикуемых на форуме нашими читателями. Если вы являетесь правообладателем какого-либо представленного материала и не желаете чтобы ссылка на него находилась в нашем каталоге, свяжитесь с нами и мы незамедлительно удалим её. Файлы для обмена на трекере предоставлены пользователями сайта, и администрация не несёт ответственности за их содержание. Просьба не заливать файлы, защищенные авторскими правами, а также файлы нелегального содержания!