На всех торрентах на трекере установлена скидка на скачивание в размере 100 процентов(а).
 Возможность скачивания торрента НЕ зависит от ограничений при низком ратио, низком аплоаде, требуемом ратио или требуемом аплоаде.


Начать новую тему Ответить на тему
Статистика раздачи
Размер: 1.6 ГБ | Добавлен: 22 фев 2014, 21:04 | Скачали: 0
Сидеров: 0  [0 байт/сек]    Личеров: 1  [0 байт/сек]
Пред. тема | След. тема 

Автор
Сообщение

СообщениеДобавлено: 22 фев 2014, 21:04 

Название: Последние дни на Марсе
Оригинальное название: The Last Days on Mars
Год выпуска: 2013
Жанр: Фантастика, триллер
Режиссер: Рори Робинсон

В ролях: Лив Шрайбер, Ромола Гарай, Элиас Котеас, Оливия Уильямс, Джонни Харрис, Горан Костич, Том Каллен, Юсра Варсама

Описание: В последние дни пребывания на Марсе астронавты делают поразительное открытие: на собранных ими образцах грунта обнаружились микроскопические следы некой формы жизни. Вскоре землян должен забрать корабль, и оставшиеся часы они решают потратить на сбор дополнительных доказательств, для чего возвращаются в марсианскую долину.



Страна: Великобритания, Ирландия
Студия: British Film Institute (BFI), Irish Film Board, Qwerty Films
Продолжительность: 01:38:29
Перевод: Любительский одноголосый


Качество: BDRip (AVC)
Видео: MPEG-4 AVC, 1500 Кбит/с, 1024x436, 23.976 кадр/с
Аудио #1: Русский (AC3, 6 ch, 384 Кбит/с) / Любительский одноголосый (den904)
Аудио #2: Английский (AC3, 6 ch, 448 Кбит/с)
Субтитры: Русские, английские

Семпл



За исходный блюр спасибо PublicHD.
Озвучивание: Любительское одноголосое [den904], перевод на русский язык [Janetta].
Cохранены оригинальные чаптеры как на Blu-ray.
x264 [info]: frame I:963 Avg QP:14.58 size: 50930
x264 [info]: frame P:36133 Avg QP:17.94 size: 15921
x264 [info]: frame B:104588 Avg QP:19.37 size: 4593
x264 [info]: consecutive B-frames: 5.2% 4.9% 13.8% 14.6% 17.5% 31.8% 5.4% 2.1% 1.1% 0.8% 0.4% 0.3% 2.0%
************************************************************************************************************************
Общее
Уникальный идентификатор : 231370244726129000688029978837975070255 (0xAE1049CB223F4EC280FB540B1208762F)
Полное имя : D:Mои раздачиThe.Last.Days.On.Mars.2013.BDRip.(AVC)-MediaClub.mkv
Формат : Matroska
Версия формата : Version 4 / Version 2
Размер файла : 1,60 Гбайт
Продолжительность : 1 ч. 38 м.
Общий поток : 2330 Кбит/сек
Название фильма : -=MediaClub-kaspr=-
Дата кодирования : UTC 2014-02-22 16:49:34
Программа кодирования : mkvmerge v6.1.0 ('Old Devil') built on Mar 4 2013 09:10:42
Библиотека кодирования : libebml v1.3.0 + libmatroska v1.4.0

Видео
Идентификатор : 1
Формат : AVC
Формат/Информация : Advanced Video Codec
Профиль формата : High@L4.1
Параметр CABAC формата : Да
Параметр ReFrames формата : 10 кадров
Идентификатор кодека : V_MPEG4/ISO/AVC
Продолжительность : 1 ч. 38 м.
Битрейт : 1500 Кбит/сек
Ширина : 1024 пикселя
Высота : 436 пикселей
Соотношение сторон : 2,35:1
Режим частоты кадров : Постоянный
Частота кадров : 23,976 кадра/сек
Цветовое пространство : YUV
Субдискретизация насыщенности : 4:2:0
Битовая глубина : 8 бит
Тип развёртки : Прогрессивная
Бит/(Пиксели*Кадры) : 0.140
Размер потока : 1022 Мбайт (62%)
Заголовок : -=MediaClub-kaspr=-
Библиотека кодирования : x264 core 140 r2377+40 929f149 tMod [8-bit@4:2:0 X86_64]
Настройки программы : cabac=1 / ref=10 / deblock=1:-3:-3 / analyse=0x3:0x133 / me=umh / subme=11 / psy=1 / fade_compensate=0.00 / psy_rd=1.00:0.20 / mixed_ref=1 / me_range=32 / chroma_me=1 / trellis=2 / 8x8dct=1 / cqm=0 / deadzone=21,11 / fast_pskip=0 / chroma_qp_offset=-3 / threads=12 / lookahead_threads=3 / sliced_threads=0 / nr=0 / decimate=0 / interlaced=0 / bluray_compat=0 / constrained_intra=0 / fgo=0 / bframes=12 / b_pyramid=2 / b_adapt=2 / b_bias=0 / direct=3 / weightb=1 / open_gop=0 / weightp=2 / keyint=240 / keyint_min=23 / scenecut=40 / intra_refresh=0 / rc=2pass / mbtree=0 / bitrate=1500 / ratetol=1.0 / qcomp=0.60 / qpmin=0:0:0 / qpmax=69:69:69 / qpstep=4 / cplxblur=20.0 / qblur=0.5 / ip_ratio=1.40 / pb_ratio=1.30 / aq=2:0.80 / aq-sensitivity=10.00 / aq-factor=1.00:1.00:1.00 / aq2=0 / aq3=0
Default : Да
Forced : Нет

Аудио #1
Идентификатор : 2
Формат : AC-3
Формат/Информация : Audio Coding 3
Расширение режима : CM (complete main)
Параметр Endianness формата : Big
Идентификатор кодека : A_AC3
Продолжительность : 1 ч. 38 м.
Вид битрейта : Постоянный
Битрейт : 384 Кбит/сек
Каналы : 6 каналов
Расположение каналов : Front: L C R, Side: L R, LFE
Частота : 48,0 КГц
Битовая глубина : 16 бит
Метод сжатия : С потерями
Размер потока : 271 Мбайт (16%)
Заголовок : VO (den904)
Язык : Russian
Default : Да
Forced : Нет

Аудио #2
Идентификатор : 3
Формат : AC-3
Формат/Информация : Audio Coding 3
Расширение режима : CM (complete main)
Параметр Endianness формата : Big
Идентификатор кодека : A_AC3
Продолжительность : 1 ч. 38 м.
Вид битрейта : Постоянный
Битрейт : 448 Кбит/сек
Каналы : 6 каналов
Расположение каналов : Front: L C R, Side: L R, LFE
Частота : 48,0 КГц
Битовая глубина : 16 бит
Метод сжатия : С потерями
Размер потока : 316 Мбайт (19%)
Язык : English
Default : Нет
Forced : Нет

Текст #1
Идентификатор : 4
Формат : UTF-8
Идентификатор кодека : S_TEXT/UTF8
Идентификатор кодека/Информация : UTF-8 Plain Text
Язык : Russian
Default : Нет
Forced : Нет

Текст #2
Идентификатор : 5
Формат : UTF-8
Идентификатор кодека : S_TEXT/UTF8
Идентификатор кодека/Информация : UTF-8 Plain Text
Язык : English
Default : Нет
Forced : Нет

Меню
00:00:00.000 : en:00:00:00.000
00:07:46.383 : en:00:07:46.383
00:16:00.710 : en:00:16:00.710
00:23:27.364 : en:00:23:27.364
00:28:57.736 : en:00:28:57.736
00:39:09.013 : en:00:39:09.013
00:47:47.656 : en:00:47:47.656
00:53:25.202 : en:00:53:25.202
01:04:03.298 : en:01:04:03.298
01:11:38.169 : en:01:11:38.169
01:22:46.128 : en:01:22:46.128
01:32:18.867 : en:01:32:18.867


Релиз: |
загрузка...
Правила, инструкции, FAQ!!!
Торрент  Добавлен [22 фев 2014, 21:04] Скачать торрент
Скачать торрент
[ Размер 16.77 КБ / Просмотров 9 ]

Статус  
 
Размер  1.6 ГБ
Приватный: Нет (DHT включён)
.torrent скачан  0
Как залить торрент? | Как скачать Torrent? | Как смотреть и слушать онлайн?  


     Отправить личное сообщение
   

СообщениеДобавлено: 13 апр 2014, 16:12 

Не в сети
Зарегистрированные пользователи
Зарегистрированные пользователи

Стаж: 2 года 7 месяцев 21 день
Раздал: 14.74 ГБ
Скачал: 0 байт
Ратио: Seed.
Торренты: 0
не плохой фильм


Профиль     Отправить личное сообщение
   
Страница 1 из 1
Показать сообщения за:  Поле сортировки  
Начать новую тему Ответить на тему

   Похожие торренты   Автор   Ответы   Просмотры   Последнее сообщение 
В этой теме нет новых непрочитанных сообщений. Скачать торрент Проверен Последние дни на Марсе / The Last Days on Mars (2013) BDRip 1080p | P

в форуме 720p | 1080p, Размер: 5.44 ГБ, Здоровье: 100%

Anonymous

0
39|4

32
407

27 сен 2014, 22:06

Anonymous Перейти к последнему сообщению

В этой теме нет новых непрочитанных сообщений. Скачать торрент Проверен Последние часы / These Final Hours (2013) BDRip 1080p | L1

в форуме 720p | 1080p, Размер: 7.39 ГБ, Здоровье: 100%

Гость

0
403|339

38
484

19 дек 2014, 22:02

Гость Перейти к последнему сообщению

В этой теме нет новых непрочитанных сообщений. Скачать торрент Проверен 30 Seconds to Mars - Up In The Air [2013, Alternative Rock, BDRip]

в форуме Концерты (HD-Video), Размер: 536.38 МБ, Здоровье: 100%

Anonymous

0
1|0

2
0

23 окт 2016, 15:41

Anonymous Перейти к последнему сообщению

В этой теме нет новых непрочитанных сообщений. Скачать торрент Проверен (Post-Rock/Experimental/Shoegaze) Последние Каникулы - Последние Каникулы [EP] - 2010, MP3 (tracks), 320 kbps

в форуме Русский Рок, Размер: 60.42 МБ, Здоровье: 0%

Anonymous

0
0|0

1
0

21 авг 2016, 07:49

Anonymous Перейти к последнему сообщению

В этой теме нет новых непрочитанных сообщений. Скачать торрент Проверен (Post-Rock/Experimental/Shoegaze) Последние Каникулы - Последние Каникулы 2 - 2010, MP3, 320 kbps

в форуме Русский Рок, Размер: 104.09 МБ, Здоровье: 0%

Anonymous

0
0|0

0
0

21 авг 2016, 07:49

Anonymous Перейти к последнему сообщению



Сейчас этот форум просматривают: нет зарегистрированных пользователей и гости: 1


Вы не можете начинать темы
Вы не можете отвечать на сообщения
Вы не можете редактировать свои сообщения
Вы не можете удалять свои сообщения
Вы не можете добавлять вложения

Перейти:  

!ВНИМАНИЕ!
 Ресурс не предоставляет электронные версии произведений, а занимается лишь коллекционированием и каталогизацией ссылок, присылаемых и публикуемых на форуме нашими читателями. Если вы являетесь правообладателем какого-либо представленного материала и не желаете чтобы ссылка на него находилась в нашем каталоге, свяжитесь с нами и мы незамедлительно удалим её. Файлы для обмена на трекере предоставлены пользователями сайта, и администрация не несёт ответственности за их содержание. Просьба не заливать файлы, защищенные авторскими правами, а также файлы нелегального содержания!