На всех торрентах на трекере установлена скидка на скачивание в размере 100 процентов(а).
 Возможность скачивания торрента НЕ зависит от ограничений при низком ратио, низком аплоаде, требуемом ратио или требуемом аплоаде.


Начать новую тему Ответить на тему
Статистика раздачи
Размер: 2.18 ГБ | Добавлен: 19 фев 2014, 11:42 | Скачали: 1
Сидеров: 56  [0 байт/сек]    Личеров: 19  [0 байт/сек]
Пред. тема | След. тема 

Автор
Сообщение

СообщениеДобавлено: 19 фев 2014, 11:42 

Явление
The Happening

«Мы это чувствовали. Мы видели знамения. Теперь… это случилось»

Год выпуска: 2008
Страна: США, Индия, Франция
Жанр: фантастика, триллер
Продолжительность: 01:30:23
Перевод: Профессиональный (полное дублирование)
Субтитры: русские + английские
Режиссер: М. Найт Шьямалан / M. Night Shyamalan
Сценарий: М. Найт Шьямалан / M. Night Shyamalan
Продюсер: М. Найт Шьямалан / M. Night Shyamalan, Бэрри Мендел / Barry Mendel, Сэм Мерсер / Sam Mercer, Гари Барбер / Gary Barber, Зарина Скривала / Zarina Screwvala
Оператор: Так Фудзимото / Tak Fujimoto
Композитор: Джеймс Ньютон Ховард / James Newton Howard
В ролях: Марк Уолберг (Elliot Moore), Зои Дешанель (Alma Moore), Джон Легуизамо (Julian), Эшлин Санчез (Jess), Бетти Бакли (Mrs. Jones), Спенсер Бреслин (Josh), Роберт Бэйли мл. (Jared), Фрэнк Коллисон (Nursery Owner), Джереми Стронг (Private Auster), Алан Рак (Principal), Виктория Кларк (Nursery Owner's Wife), М. Найт Шьямалан (Joey, озвучка)
Дублёры: Владимир Маслаков (Elliot Moore), Наталья Мартынова (Alma Moore), Артем Веселов (Julian), Ульяна Солодилова (Jess), Татьяна Ткач (Mrs. Jones), Виктор Костецкий (Nursery Owner), Станислав Концевич (Principal), Елена Терновая (Nursery Owner's Wife)
Описание: История о семье, которая пытается сбежать от угрозы, грозящей всему человечеству. Беда приходит из ниоткуда, настигает внезапно, заставляя людей повсеместно совершать самоубийства. Страшная напасть, эпидемия или новая болезнь? Что это? Никто не знает...




MPAA: R - Лицам до 17 лет обязательно присутствие взрослого


Качество: BDRip
Контейнер: AVI
Видео: 720x384 (1.88:1), 23.976 fps, XviD MPEG-4 ~2094 kbps avg, 0.32 bit/pixel
Аудио I: 48 kHz, AC3 Dolby Digital, 3/2 (L,C,R,l,r) + LFE ch, ~448 kbps (Rus)
Аудио II: 48 kHz, AC3 Dolby Digital, 3/2 (L,C,R,l,r) + LFE ch, ~448 kbps (Ukr)
Аудио III: 48 kHz, AC3 Dolby Digital, 3/2 (L,C,R,l,r) + LFE ch, ~448 kbps (Eng)

MediaInfo
Код:
Код:
General
Format                                   : AVI
Format/Info                              : Audio Video Interleave
Format profile                           : OpenDML
File size                                : 2.18 GiB
Duration                                 : 1h 30mn
Overall bit rate                         : 3 445 Kbps
Movie name                               : The.Happening.2008.BDRip.Dub.All.Films
Director                                 : DIABLO93
Genre                                    : Thriller
Writing application                      : VirtualDubMod 1.5.10.3 | www.virtualdub-fr.org || (build 2550/release)
Original source form/Name                : Movie
Copyright                                : Rutracker.org (R.G. All Films)

Video
ID                                       : 0
Format                                   : MPEG-4 Visual
Format profile                           : Advanced Simple@L5
Format settings, BVOP                    : 2
Format settings, QPel                    : No
Format settings, GMC                     : No warppoints
Format settings, Matrix                  : Custom
Codec ID                                 : XVID
Codec ID/Hint                            : XviD
Duration                                 : 1h 30mn
Bit rate                                 : 2 078 Kbps
Width                                    : 720 pixels
Height                                   : 384 pixels
Display aspect ratio                     : 1.85:1
Frame rate                               : 23.976 fps
Color space                              : YUV
Chroma subsampling                       : 4:2:0
Bit depth                                : 8 bits
Scan type                                : Progressive
Compression mode                         : Lossy
Bits/(Pixel*Frame)                       : 0.313
Stream size                              : 1.31 GiB (60%)
Writing library                          : XviD 65

Audio #1
ID                                       : 1
Format                                   : AC-3
Format/Info                              : Audio Coding 3
Mode extension                           : CM (complete main)
Format settings, Endianness              : Big
Codec ID                                 : 2000
Duration                                 : 1h 30mn
Bit rate mode                            : Constant
Bit rate                                 : 448 Kbps
Channel(s)                               : 6 channels
Channel positions                        : Front: L C R, Side: L R, LFE
Sampling rate                            : 48.0 KHz
Bit depth                                : 16 bits
Compression mode                         : Lossy
Stream size                              : 290 MiB (13%)
Alignment                                : Split accross interleaves
Interleave, duration                     : 42 ms (1.00 video frame)
Interleave, preload duration             : 500 ms

Audio #2
ID                                       : 2
Format                                   : AC-3
Format/Info                              : Audio Coding 3
Mode extension                           : CM (complete main)
Format settings, Endianness              : Big
Codec ID                                 : 2000
Duration                                 : 1h 30mn
Bit rate mode                            : Constant
Bit rate                                 : 448 Kbps
Channel(s)                               : 6 channels
Channel positions                        : Front: L C R, Side: L R, LFE
Sampling rate                            : 48.0 KHz
Bit depth                                : 16 bits
Compression mode                         : Lossy
Stream size                              : 290 MiB (13%)
Alignment                                : Split accross interleaves
Interleave, duration                     : 42 ms (1.00 video frame)
Interleave, preload duration             : 500 ms

Audio #3
ID                                       : 3
Format                                   : AC-3
Format/Info                              : Audio Coding 3
Mode extension                           : CM (complete main)
Format settings, Endianness              : Big
Codec ID                                 : 2000
Duration                                 : 1h 30mn
Bit rate mode                            : Constant
Bit rate                                 : 448 Kbps
Channel(s)                               : 6 channels
Channel positions                        : Front: L C R, Side: L R, LFE
Sampling rate                            : 48.0 KHz
Bit depth                                : 16 bits
Compression mode                         : Lossy
Stream size                              : 290 MiB (13%)
Alignment                                : Split accross interleaves
Interleave, duration                     : 42 ms (1.00 video frame)
Interleave, preload duration             : 500 ms



загрузка...
Правила, инструкции, FAQ!!!
Торрент  Добавлен [19 фев 2014, 11:42] Скачать торрент
Скачать торрент
[ Размер 11.7 КБ / Просмотров 8 ]

Статус  
 
Размер  2.18 ГБ
Приватный: Нет (DHT включён)
.torrent скачан  1
Как залить торрент? | Как скачать Torrent? | Как смотреть и слушать онлайн?  


     Отправить личное сообщение
   
Страница 1 из 1
Показать сообщения за:  Поле сортировки  
Начать новую тему Ответить на тему

   Похожие торренты   Автор   Ответы   Просмотры   Последнее сообщение 
В этой теме нет новых непрочитанных сообщений. Скачать торрент Таинственный лес / The Village (М. Найт Шьямалан / M. Night Shyamalan ) [2004 г., Триллер, мистика, HDTVRip] Dub

в форуме Триллеры, Размер: 2.18 ГБ, Здоровье: 0%

Anonymous

0
0|0

31
0

22 апр 2014, 11:41

Anonymous Перейти к последнему сообщению

В этой теме нет новых непрочитанных сообщений. Скачать торрент Неуязвимый / Unbreakable (М. Найт Шьямалан / M. Night Shyamalan) [2000 г., Триллер, фэнтези, детектив, драма, HDRip] Dub

в форуме Триллеры, Размер: 744.57 МБ, Здоровье: 0%

Anonymous

0
0|0

36
2

01 фев 2014, 19:08

Anonymous Перейти к последнему сообщению

В этой теме нет новых непрочитанных сообщений. Скачать торрент Проверен Повелитель стихий в 3Д / The Last Airbender 3D (М. Найт Шьямалан / M. Night Shyamalan) [2010, фэнтези, приключения, боевик, BDrip-AVC] Half OverUnder / Вертикальная анаморфная стереопара

в форуме HD-Video в 3D, Размер: 6.92 ГБ, Здоровье: 100%

Anonymous

0
50|17

89
0

10 июл 2014, 15:14

Anonymous Перейти к последнему сообщению

В этой теме нет новых непрочитанных сообщений. Скачать торрент Явление / The Happening (2008) BDRip от HELLYWOOD

в форуме Фантастика, Фэнтези, Размер: 1.69 ГБ, Здоровье: 59%

Anonymous

0
13|22

29
5

27 янв 2014, 10:11

Anonymous Перейти к последнему сообщению

В этой теме нет новых непрочитанных сообщений. Скачать торрент Проверен Явление / The Happening (2008) BDRip 1080p

в форуме 720p | 1080p, Размер: 5.76 ГБ, Здоровье: 100%

Гость

0
40|2

25
101

06 дек 2014, 20:51

Гость Перейти к последнему сообщению



Сейчас этот форум просматривают: нет зарегистрированных пользователей и гости: 1


Вы не можете начинать темы
Вы не можете отвечать на сообщения
Вы не можете редактировать свои сообщения
Вы не можете удалять свои сообщения
Вы не можете добавлять вложения

Перейти:  

!ВНИМАНИЕ!
 Ресурс не предоставляет электронные версии произведений, а занимается лишь коллекционированием и каталогизацией ссылок, присылаемых и публикуемых на форуме нашими читателями. Если вы являетесь правообладателем какого-либо представленного материала и не желаете чтобы ссылка на него находилась в нашем каталоге, свяжитесь с нами и мы незамедлительно удалим её. Файлы для обмена на трекере предоставлены пользователями сайта, и администрация не несёт ответственности за их содержание. Просьба не заливать файлы, защищенные авторскими правами, а также файлы нелегального содержания!