На всех торрентах на трекере установлена скидка на скачивание в размере 100 процентов(а).
 Возможность скачивания торрента НЕ зависит от ограничений при низком ратио, низком аплоаде, требуемом ратио или требуемом аплоаде.


Начать новую тему Ответить на тему
Статистика раздачи
Размер: 1.41 ГБ | Добавлен: 19 фев 2014, 11:41 | Скачали: 1
Сидеров: 14  [0 байт/сек]    Личеров: 4  [0 байт/сек]
Пред. тема | След. тема 

Автор
Сообщение

СообщениеДобавлено: 19 фев 2014, 11:41 

Ундина /
ONDINE
«The truth is not what you know. It's what you believe.»
Страна: США, Ирландия
Студия: Wayfare Entertainment
Жанр: фэнтези, драма
Год выпуска: 2009
Продолжительность: 01:43:30
Перевод: профессиональный (многоголосый закадровый) лицензия
Субтитры: нет
Режиссёр: Нил Джордан / Neil Jordan
В ролях: Колин Фаррелл, Алиция Бахледа-Цуруш, Дервла Кирван, Элисон Бэрри, Мэрион О’Двайр, Тони Карран, Мэри О’Ши, Джемма Ривз, Стивен Ри, Норма Шихан, Эмиль Хостина, Конор Пауэр, Olwyn Hanley, Марк Доэрти, Питер Гауэн, Хелен Нортон, Дон Вичерли, Гертруда Монтгомери, Риз О’Ши, Шарон Шеннон, Dashiel Jordan.
Описание:

Жизнь рыбака Сиракуза и его дочки Энни переворачивается, когда главному герою в сети попадает прекрасная и таинственная незнакомка. Энни верит, что девушка — волшебное существо, а у Сиракуза все прозаичнее: он попросту безнадежно влюбляется в красавицу. Постепенно жизнь Сиракуза и всех его окружающих меняется, и они начинают подозревать, что в сети попалась не просто девушка, а морская нимфа.





[i][b]Качество видео:
BDRip
[font=Georgia]Формат файла:
AVI

Видео: XviD, 720x400 (16:9), 23.976 fps, 1554 kbps avg, 0.225 bit/pixel
Аудио: 48 kHz, AC3 Dolby Digital, 3/2 (L,C,R,l,r) + LFE ch, 384 kbps avg (Rus MVO)
MediaInfo
Общее
Полное имя : D:\Torrent Rutracker\Ondine.2009.MVO.XviD.AC3.BDRip.avi
Формат : AVI
Формат/Информация : Audio Video Interleave
Размер файла : 1,41 Гбайт
Продолжительность : 1 ч. 43 м.
Общий поток : 1948 Кбит/сек
Программа кодирования : VirtualDubModRus 1.5.10.2 (build 2542/release)
Библиотека кодирования : VirtualDubMod build 2542/release

Видео
Идентификатор : 0
Формат : MPEG-4 Visual
Профиль формата : Advanced Simple@L5
Параметр BVOP формата : 1
Параметр QPel формата : Нет
Параметр GMC формата : Без точки перехода
Параметр матрицы формата : Выборочная
Идентификатор кодека : XVID
Идентификатор кодека/Подсказка : XviD
Продолжительность : 1 ч. 43 м.
Битрейт : 1554 Кбит/сек
Ширина : 720 пикселей
Высота : 400 пикселей
Соотношение сторон : 16:9
Частота кадров : 23,976 кадра/сек
Цветовое пространство : YUV
Субдискретизация насыщенности : 4:2:0
Битовая глубина : 8 бит
Тип развёртки : Прогрессивная
Метод сжатия : С потерями
Бит/(Пиксели*Кадры) : 0.225
Размер потока : 1,12 Гбайт (80%)
Библиотека кодирования : XviD 1.2.1 (UTC 2008-12-04)

Аудио
Идентификатор : 1
Формат : AC-3
Формат/Информация : Audio Coding 3
Расширение режима : CM (complete main)
Идентификатор кодека : 2000
Продолжительность : 1 ч. 43 м.
Вид битрейта : Постоянный
Битрейт : 384 Кбит/сек
Каналы : 6 каналов
Расположение каналов : Front: L C R, Side: L R, LFE
Частота : 48,0 КГц
Битовая глубина : 16 бит
Метод сжатия : С потерями
Размер потока : 284 Мбайт (20%)
Выравнивание : Разделение по промежуткам
Продолжительность промежутка : 42 мс. (1,00 видеокадр)
Время предзагрузки промежутка : 500 мс.

загрузка...
Правила, инструкции, FAQ!!!
Торрент  Добавлен [19 фев 2014, 11:41] Скачать торрент
Скачать торрент
[ Размер 14.57 КБ / Просмотров 13 ]

Статус  
 
Размер  1.41 ГБ
Приватный: Нет (DHT включён)
.torrent скачан  1
Как залить торрент? | Как скачать Torrent? | Как смотреть и слушать онлайн?  


     Отправить личное сообщение
   
Страница 1 из 1
Показать сообщения за:  Поле сортировки  
Начать новую тему Ответить на тему

   Похожие торренты   Автор   Ответы   Просмотры   Последнее сообщение 
В этой теме нет новых непрочитанных сообщений. Скачать торрент Трещины / Cracks (Джордан Скотт / Jordan Scott) [2009 г., Драма, DVDRip]

в форуме Драмы, Мелодрамы, Размер: 703.39 МБ, Здоровье: 100%

Anonymous

0
18|6

21
0

15 апр 2014, 08:18

Anonymous Перейти к последнему сообщению

В этой теме нет новых непрочитанных сообщений. Скачать торрент Немыслимое / Unthinkable (Грегор Джордан / Gregor Jordan) [2010 г., США, триллер, драма, BDRip-AVC] [Extended Cut]

в форуме 720p | 1080p, Размер: 2.92 ГБ, Здоровье: 0%

Anonymous

0
0|0

31
0

19 фев 2014, 11:41

Anonymous Перейти к последнему сообщению

В этой теме нет новых непрочитанных сообщений. Скачать торрент Проверен Nicole Jordan/Николь Джордан - собрание произведений (20 книг) [1992-2009, FB2, RUS]

в форуме Женский роман, Размер: 12.83 МБ, Здоровье: 100%

Anonymous

0
5|1

2
0

28 авг 2016, 20:35

Anonymous Перейти к последнему сообщению

В этой теме нет новых непрочитанных сообщений. Скачать торрент Потустороннее / Hereafter (Клинт Иствуд / Clint Eastwood) [2010, США, фэнтези, драма, BDRip-AVC] Лицензия

в форуме Фантастика, Фэнтези, Размер: 2.18 ГБ, Здоровье: 100%

Anonymous

0
2|1

62
1

01 апр 2014, 09:33

Anonymous Перейти к последнему сообщению

В этой теме нет новых непрочитанных сообщений. Скачать торрент Проверен Penny Jordan / Пенни Джордан - Любовные романы - 21 произведение [1991-2007, RTF + FB2, RUS]

в форуме Женский роман, Размер: 11.84 МБ, Здоровье: 100%

Anonymous

0
23|7

2
0

28 авг 2016, 20:53

Anonymous Перейти к последнему сообщению



Сейчас этот форум просматривают: нет зарегистрированных пользователей и гости: 3


Вы не можете начинать темы
Вы не можете отвечать на сообщения
Вы не можете редактировать свои сообщения
Вы не можете удалять свои сообщения
Вы не можете добавлять вложения

Перейти:  

!ВНИМАНИЕ!
 Ресурс не предоставляет электронные версии произведений, а занимается лишь коллекционированием и каталогизацией ссылок, присылаемых и публикуемых на форуме нашими читателями. Если вы являетесь правообладателем какого-либо представленного материала и не желаете чтобы ссылка на него находилась в нашем каталоге, свяжитесь с нами и мы незамедлительно удалим её. Файлы для обмена на трекере предоставлены пользователями сайта, и администрация не несёт ответственности за их содержание. Просьба не заливать файлы, защищенные авторскими правами, а также файлы нелегального содержания!