На всех торрентах на трекере установлена скидка на скачивание в размере 100 процентов(а).
 Возможность скачивания торрента НЕ зависит от ограничений при низком ратио, низком аплоаде, требуемом ратио или требуемом аплоаде.


Начать новую тему Ответить на тему
Статистика раздачи
Размер: 2.2 ГБ | Добавлен: 16 фев 2014, 13:09 | Скачали: 1
Сидеров: 50  [0 байт/сек]    Личеров: 16  [0 байт/сек]
Пред. тема | След. тема 

Автор
Сообщение

СообщениеДобавлено: 16 фев 2014, 13:09 

Цвет Волшебства Терри Пратчетта / Terry Pratchett's The Colour of Magic

Год выпуска: 2008
Страна: Великобритания
Жанр: Фэнтези
Продолжительность: 03:09:15
Перевод: Профессиональный (многоголосый, закадровый)
Русские субтитры: есть - отдельно

Режиссер: Вадим Жан / Vadim Jean

В ролях: Роджер Эштон-Гриффитс, Шон Эстин, Тим Карри, Дэвид Брэдли, Лиз Мэй Брайс, Питер Копли, Джеймс Космо, Брайан Кокс, Тим Карри, Ричард Да Коста

Описание: В Анк-Морпорк, крупнейший город Плоского Мира приезжает первый (и постоянно рискующий стать последним) турист Диска — Двацветок. Ринсвинд, самый трусливый и, вероятно, самый худший волшебник Диска, вынужден стать его гидом. Как большинство туристов, Двацветок абсолютно уверен, что с ним ничего страшного произойти просто не может. И поэтому он смело идет навстречу приключениям, а их будет немало: от поджёга целого города до полёта на драконе и падения за Край!



СЭМПЛ

Качество: DVDRip(Исх. DVD9)
Формат: AVI
Видео кодек: XviD
Аудио кодек: AC3
Видео: 720x400 (1.80:1), 25 fps, XviD build 50 ~1072 kbps avg, 0.15 bit/pixel
Audio #1: 48 kHz, AC3 Dolby Digital, 3/2 (L,C,R,l,r) + LFE ch, ~384 kbps RUS
Audio #2: 48 kHz, AC3 Dolby Digital, 2/0 (L,R) ch, ~192 kbps ENG
Субтитры:русские - отдельно
AviInfo
File: Cvet.volshebstva.chopper887.avi
Filesize: 2252.64 Mb ( 2 362 062 848 bytes )
Play length: 03:09:15.000 (283875 frames)
Subtitles: rus (SubRip format)
Video: 720x400 (1.80:1), 25 fps, XviD build 50 ~1072 kbps avg, 0.15 bit/pixel
Audio #1: 48 kHz, AC3 Dolby Digital, 3/2 (L,C,R,l,r) + LFE ch, ~384 kbps
Audio #2: 48 kHz, AC3 Dolby Digital, 2/0 (L,R) ch, ~192 kbps
MediaInfo
General
Complete name : J:\Cvet.volshebstva.Terri.Pratchetta.chopper887.2008\Cvet.volshebstva.chopper887.avi
Format : AVI
Format/Info : Audio Video Interleave
File size : 2.20 GiB
Duration : 3h 9mn
Overall bit rate : 1 664 Kbps
Writing application : VirtualDubMod 1.5.10.2 (build 2540/release)
Writing library : VirtualDubMod build 2540/release

Video
ID : 0
Format : MPEG-4 Visual
Format profile : Advanced Simple@L5
Format settings, BVOP : Yes
Format settings, QPel : No
Format settings, GMC : No warppoints
Format settings, Matrix : Default (H.263)
Codec ID : XVID
Codec ID/Hint : XviD
Duration : 3h 9mn
Bit rate : 1 074 Kbps
Width : 720 pixels
Height : 400 pixels
Display aspect ratio : 16:9
Frame rate : 25.000 fps
Resolution : 8 bits
Colorimetry : 4:2:0
Scan type : Progressive
Bits/(Pixel*Frame) : 0.149
Stream size : 1.42 GiB (65%)
Writing library : XviD 1.2.1 (UTC 2008-12-04)

Audio #1
ID : 1
Format : AC-3
Format/Info : Audio Coding 3
Codec ID : 2000
Duration : 3h 9mn
Bit rate mode : Constant
Bit rate : 384 Kbps
Channel(s) : 6 channels
Channel positions : Front: L C R, Surround: L R, LFE
Sampling rate : 48.0 KHz
Stream size : 520 MiB (23%)
Alignment : Split accross interleaves
Interleave, duration : 40 ms (1.00 video frame)
Interleave, preload duration : 500 ms

Audio #2
ID : 2
Format : AC-3
Format/Info : Audio Coding 3
Codec ID : 2000
Duration : 3h 9mn
Bit rate mode : Constant
Bit rate : 192 Kbps
Channel(s) : 2 channels
Channel positions : L R
Sampling rate : 48.0 KHz
Stream size : 260 MiB (12%)
Alignment : Split accross interleaves
Interleave, duration : 40 ms (1.00 video frame)
Interleave, preload duration : 500 ms
скриншоты radikal
[/URL]
Скриншоты
загрузка...
Правила, инструкции, FAQ!!!
Торрент  Добавлен [16 фев 2014, 13:09] Скачать торрент
Скачать торрент
[ Размер 11.63 КБ / Просмотров 4 ]

Статус  
 
Размер  2.2 ГБ
Приватный: Нет (DHT включён)
.torrent скачан  1
Как залить торрент? | Как скачать Torrent? | Как смотреть и слушать онлайн?  


     Отправить личное сообщение
   
Страница 1 из 1
Показать сообщения за:  Поле сортировки  
Начать новую тему Ответить на тему

   Похожие торренты   Автор   Ответы   Просмотры   Последнее сообщение 
В этой теме нет новых непрочитанных сообщений. Скачать торрент Проверен Пратчетт Терри - Цвет волшебства [Диомид Виноградов, 2008, 128 kbps]

в форуме Зарубежная фантастика, фэнтези, мистика, ужасы, Размер: 509.56 МБ, Здоровье: 100%

Anonymous

0
1|0

5
1

11 сен 2016, 12:20

Anonymous Перейти к последнему сообщению

В этой теме нет новых непрочитанных сообщений. Скачать торрент Проверен Терри Пратчетт - Цвет волшебства; Безумная звезда [Диомид Виноградов, 2008, 96 kbps, m4b]

в форуме Аудиокниги (AAC, ALAC), Размер: 780 МБ, Здоровье: 0%

Anonymous

0
0|0

9
0

28 авг 2016, 17:51

Anonymous Перейти к последнему сообщению

В этой теме нет новых непрочитанных сообщений. Скачать торрент Проверен Цвет волшебства – Терри Пратчетт

в форуме Аудиокниги (AAC, ALAC), Размер: 470.73 МБ, Здоровье: 0%

Anonymous

0
0|0

6
0

28 авг 2016, 17:55

Anonymous Перейти к последнему сообщению

В этой теме нет новых непрочитанных сообщений. Скачать торрент Проверен Прaтчетт Терри - Цвет волшебства [DrLutz, 2007, 128 kbps]

в форуме Зарубежная фантастика, фэнтези, мистика, ужасы, Размер: 511.94 МБ, Здоровье: 100%

Anonymous

0
25|0

2
1

11 сен 2016, 11:56

Anonymous Перейти к последнему сообщению

В этой теме нет новых непрочитанных сообщений. Скачать торрент Проверен Прaтчетт Терри - Цвет волшебства [DrLutz, 2007, 64 kbps]

в форуме Зарубежная фантастика, фэнтези, мистика, ужасы, Размер: 256 МБ, Здоровье: 0%

Anonymous

0
0|0

2
0

11 сен 2016, 11:49

Anonymous Перейти к последнему сообщению



Сейчас этот форум просматривают: нет зарегистрированных пользователей и гости: 2


Вы не можете начинать темы
Вы не можете отвечать на сообщения
Вы не можете редактировать свои сообщения
Вы не можете удалять свои сообщения
Вы не можете добавлять вложения

Перейти:  

!ВНИМАНИЕ!
 Ресурс не предоставляет электронные версии произведений, а занимается лишь коллекционированием и каталогизацией ссылок, присылаемых и публикуемых на форуме нашими читателями. Если вы являетесь правообладателем какого-либо представленного материала и не желаете чтобы ссылка на него находилась в нашем каталоге, свяжитесь с нами и мы незамедлительно удалим её. Файлы для обмена на трекере предоставлены пользователями сайта, и администрация не несёт ответственности за их содержание. Просьба не заливать файлы, защищенные авторскими правами, а также файлы нелегального содержания!