На всех торрентах на трекере установлена скидка на скачивание в размере 100 процентов(а).
 Возможность скачивания торрента НЕ зависит от ограничений при низком ратио, низком аплоаде, требуемом ратио или требуемом аплоаде.


Начать новую тему Ответить на тему
Статистика раздачи
Размер: 751.6 МБ | Добавлен: 16 фев 2014, 13:06 | Скачали: 1
Сидеров: 47  [0 байт/сек]    Личеров: 16  [0 байт/сек]
Пред. тема | След. тема 

Автор
Сообщение

СообщениеДобавлено: 16 фев 2014, 13:06 

Там, где живут чудовища / Where the Wild Things Are

Страна: США, Германия
Жанр: фэнтези, драма, приключения, семейный
Год выпуска: 2009
Продолжительность: 01:41:01

Перевод: Профессиональный (дублированный)
Cубтитры: нет
Режиссер: Спайк Джонз / Spike Jonze

В ролях: Макс Рекордс, Райан Корр, Кэтрин Кинер, Стив Музакис, Марк Руффало, Джеймс Гандольфини, Винсент Краули, Пол Дано, Кэтрин О’Хара, Форест Уитакер, Крис Купер, Лорен Эмброуз

Описание: Мальчик убегает из дома ночью после ссоры с мамой и оказывается в близлежащем парке. На рассвете он находит водоем и лодку, садится в нее и к вечеру следующего дня его прибивает к маленькому острову, населенному необычайными существами.
Автор рипа: avatar-aang
Релиз групп:
Сэмпл: http://sendfile.su/414420

Качество видео: HDRip (Исх. BDRip 1080p)
Формат видео: AVI

Видео: 688x288 (2.39:1), 23.976 fps, XviD build 63 ~902 kbps avg, 0.19 bit/pixel
Аудио: 48 kHz, MPEG Layer 3, 2 ch, ~128.00 kbps avg
MediaInfo
General
Complete name : J:\CHUDIK.avi
Format : AVI
Format/Info : Audio Video Interleave
File size : 752 MiB
Duration : 1h 41mn
Overall bit rate : 1 040 Kbps
Writing application : VirtualDubMod 1.5.10.2 (build 2540/release)
Writing library : VirtualDubMod build 2540/release

Video
ID : 0
Format : MPEG-4 Visual
Format profile : Advanced Simple@L5
Format settings, BVOP : Yes
Format settings, QPel : No
Format settings, GMC : No warppoints
Format settings, Matrix : Custom
Codec ID : XVID
Codec ID/Hint : XviD
Duration : 1h 41mn
Bit rate : 903 Kbps
Width : 688 pixels
Height : 288 pixels
Display aspect ratio : 2.35:1
Frame rate : 23.976 fps
Color space : YUV
Chroma subsampling : 4:2:0
Bit depth : 8 bits
Scan type : Progressive
Bits/(Pixel*Frame) : 0.190
Stream size : 652 MiB (87%)
Writing library : XviD 63

Audio
ID : 1
Format : MPEG Audio
Format version : Version 1
Format profile : Layer 3
Codec ID : 55
Codec ID/Hint : MP3
Duration : 1h 41mn
Bit rate mode : Constant
Bit rate : 128 Kbps
Channel(s) : 2 channels
Sampling rate : 48.0 KHz
Stream size : 92.5 MiB (12%)
Alignment : Aligned on interleaves
Interleave, duration : 42 ms (1.00 video frame)
Interleave, preload duration : 504 ms
Writing library : LAME3.98r
Encoding settings : -m s -V 4 -q 2 -lowpass 17 -b 128
Скриншоты
загрузка...
Правила, инструкции, FAQ!!!
Торрент  Добавлен [16 фев 2014, 13:06] Скачать торрент
Скачать торрент
[ Размер 15.15 КБ / Просмотров 10 ]

Статус  
 
Размер  751.6 МБ
Приватный: Нет (DHT включён)
.torrent скачан  1
Как залить торрент? | Как скачать Torrent? | Как смотреть и слушать онлайн?  


     Отправить личное сообщение
   
Страница 1 из 1
Показать сообщения за:  Поле сортировки  
Начать новую тему Ответить на тему

   Похожие торренты   Автор   Ответы   Просмотры   Последнее сообщение 
В этой теме нет новых непрочитанных сообщений. Скачать торрент Проверен [iPad] Она / Her (Спайк Джонс / Spike Jonze ) [2013, США, мелодрама, драма, фантастика, HDRip, SD (576p)] MVO + Original + sub (rus for, eng)

в форуме Фильмы для iPod, iPhone, iPad, Размер: 2.13 ГБ, Здоровье: 100%

Гость

0
56|19

37
1

11 май 2015, 01:36

Гость Перейти к последнему сообщению

В этой теме нет новых непрочитанных сообщений. Скачать торрент Проверен Там, где живут чудовища / Where the Wild Things Are (2009) BDRip

в форуме Детское, Семейное кино, Размер: 2.18 ГБ, Здоровье: 100%

Anonymous

0
6|1

74
0

09 авг 2014, 21:28

Anonymous Перейти к последнему сообщению

В этой теме нет новых непрочитанных сообщений. Скачать торрент Проверен Там, где живут чудовища / Where the Wild Things Are (2009) BDRip [720p]

в форуме Детское, Семейное кино, Размер: 5.1 ГБ, Здоровье: 100%

Anonymous

0
18|1

89
0

09 авг 2014, 21:29

Anonymous Перейти к последнему сообщению

В этой теме нет новых непрочитанных сообщений. Скачать торрент Не пойман - не вор / Inside Man (Спайк Ли / Spike Lee) [2006 г., США, триллер, драма, криминал, HDRip-AVC] Dub

в форуме 720p | 1080p, Размер: 744.94 МБ, Здоровье: 0%

Anonymous

0
0|0

25
0

14 фев 2014, 07:44

Anonymous Перейти к последнему сообщению

В этой теме нет новых непрочитанных сообщений. Скачать торрент Проверен [iPad] Олдбой / Oldboy (Спайк Ли / Spike Lee ) [2013, США, триллер, драма, детектив, боевик, HDRip, SD (576p)] DUB (Line) + Original + sub (eng)

в форуме Фильмы для iPod, iPhone, iPad, Размер: 1.8 ГБ, Здоровье: 100%

Гость

0
14|5

56
0

18 май 2015, 10:55

Гость Перейти к последнему сообщению



Сейчас этот форум просматривают: нет зарегистрированных пользователей и гости: 1


Вы не можете начинать темы
Вы не можете отвечать на сообщения
Вы не можете редактировать свои сообщения
Вы не можете удалять свои сообщения
Вы не можете добавлять вложения

Перейти:  

!ВНИМАНИЕ!
 Ресурс не предоставляет электронные версии произведений, а занимается лишь коллекционированием и каталогизацией ссылок, присылаемых и публикуемых на форуме нашими читателями. Если вы являетесь правообладателем какого-либо представленного материала и не желаете чтобы ссылка на него находилась в нашем каталоге, свяжитесь с нами и мы незамедлительно удалим её. Файлы для обмена на трекере предоставлены пользователями сайта, и администрация не несёт ответственности за их содержание. Просьба не заливать файлы, защищенные авторскими правами, а также файлы нелегального содержания!