На всех торрентах на трекере установлена скидка на скачивание в размере 100 процентов(а).
 Возможность скачивания торрента НЕ зависит от ограничений при низком ратио, низком аплоаде, требуемом ратио или требуемом аплоаде.


Начать новую тему Ответить на тему
Статистика раздачи
Размер: 1.46 ГБ | Добавлен: 12 фев 2014, 08:17 | Скачали: 0
Сидеров: 3  [0 байт/сек]    Личеров: 1  [0 байт/сек]
Пред. тема | След. тема 

Автор
Сообщение

СообщениеДобавлено: 12 фев 2014, 08:17 

Не отпускай меня / Never Let Me Go

Страна: США, Великобритания
Студия: DNA Films, Film4, Fox Searchlight Pictures
Жанр: фантастика, триллер, драма
Год выпуска: 2010
Продолжительность: 01:44:02

Перевод: Любительский (двухголосый)
Субтитры: русский, английский
Оригинальная аудиодорожка: нет

Режиссер: Марк Романек / Mark Romanek

В ролях:Кэри Маллиган, Эндрю Гарфилд, Кира Найтли, Иззи Мейкл-Смолл, Чарли Роу, Элла Пурнелла, Шарлотта Рэмплинг, Салли Хокинс, Кейт Боуc Ренна, Ханна Шар...

Описание: Троица главных героев выросла в интернате и была лишена любого контакта с окружающим миром. Но со временем друзья узнают, что они на самом деле — клоны, выращиваемые для донорства органов.





Тип релиза: HDRip, источник Never.Let.Me.Go.2010.1080p.BluRay.x264.DTS-HDChina, звук из релиза группы
Контейнер: AVI

Видео: 720x304 (2.35:1), 23.976 fps, XVID ~1614 kbps avg, 0.307 bit/pixel
Аудио : Русский, 48 kHz, AC3, 6 ch, 384.00 kbps Constant
Формат субтитров: SoftSub (srt)
MediaInfo
Общее
Полное имя : Ne.otpuskaj.menja.2010.L2.HDRip.avi
Формат : AVI
Формат/Информация : Audio Video Interleave
Размер файла : 1,46 Гбайт
Продолжительность : 1 ч. 44 м.
Общий поток : 2007 Кбит/сек
Программа кодирования : VirtualDubMod 1.5.10.3 (build 2550/release)
Библиотека кодирования : VirtualDubMod build 2550/release

Видео
Идентификатор : 0
Формат : MPEG-4 Visual
Профиль формата : Advanced Simple@L5
Параметр BVOP формата : Да
Параметр QPel формата : Нет
Параметр GMC формата : Без точки перехода
Параметр матрицы формата : Выборочная
Идентификатор кодека : XVID
Идентификатор кодека/Подсказка : XviD
Продолжительность : 1 ч. 44 м.
Битрейт : 1614 Кбит/сек
Ширина : 720 пикс.
Высота : 304 пикс.
Соотношение сторон : 2,35:1
Частота кадров : 23,976 кадр/сек
Цветовое пространство : YUV
Подвыборка цветности : 4:2:0
Битовая глубина : 8 бит
Тип развёртки : Прогрессивная
Метод сжатия : С потерями
Бит/(Пиксели*Кадры) : 0.307
Размер потока : 1,17 Гбайт (80%)
Библиотека кодирования : XviD 60

Аудио
Идентификатор : 1
Формат : AC-3
Формат/Информация : Audio Coding 3
Расширение режима : CM (complete main)
Идентификатор кодека : 2000
Продолжительность : 1 ч. 44 м.
Вид битрейта : Постоянный
Битрейт : 384 Кбит/сек
Канал(ы) : 6 канала(ов)
Расположение каналов : Front: L C R, Side: L R, LFE
Частота : 48,0 КГц
Битовая глубина : 16 бит
Метод сжатия : С потерями
Размер потока : 286 Мбайт (19%)
Выравнивание : Разделение по промежуткам
Продолжительность промежутка : 42 мс. (1,00 видеокадр)
Время предзагрузки промежутка : 500 ms


Скриншоты
загрузка...
Правила, инструкции, FAQ!!!
Торрент  Добавлен [12 фев 2014, 08:17] Скачать торрент
Скачать торрент
[ Размер 30.08 КБ / Просмотров 9 ]

Статус  
 
Размер  1.46 ГБ
Приватный: Нет (DHT включён)
.torrent скачан  0
Как залить торрент? | Как скачать Torrent? | Как смотреть и слушать онлайн?  


     Отправить личное сообщение
   
Страница 1 из 1
Показать сообщения за:  Поле сортировки  
Начать новую тему Ответить на тему

   Похожие торренты   Автор   Ответы   Просмотры   Последнее сообщение 
В этой теме нет новых непрочитанных сообщений. Скачать торрент Проверен [iPod] Не отпускай меня / Never Let Me Go (Марк Романек / Mark Romanek) [2010, фантастика, триллер, драма, HDRip]

в форуме Фильмы для iPod, iPhone, iPad, Размер: 448.91 МБ, Здоровье: 100%

Anonymous

0
3|1

20
0

18 май 2015, 10:46

Anonymous Перейти к последнему сообщению

В этой теме нет новых непрочитанных сообщений. Скачать торрент Не отпускай меня / Never let me go (Марк Романек / Mark Romanek) [2010 г., США, Великобритания, драма, мелодрама, BDRip-AVC]

в форуме Драмы, Мелодрамы, Размер: 2.18 ГБ, Здоровье: 100%

Anonymous

0
23|7

35
0

14 апр 2014, 09:28

Anonymous Перейти к последнему сообщению

В этой теме нет новых непрочитанных сообщений. Скачать торрент Мальчик в полосатой пижаме / The Boy in the Striped Pyjamas (Марк Херман / Mark Herman) [2008, США, Великобритания, Триллер, драма, военный, BDRip] Dub

в форуме Триллеры, Размер: 743.05 МБ, Здоровье: 0%

Anonymous

0
0|0

35
0

02 апр 2014, 08:21

Anonymous Перейти к последнему сообщению

В этой теме нет новых непрочитанных сообщений. Скачать торрент Оттепель / The Thaw (Марк А. Льюис / Mark A. Lewis) [2009 г., ужасы, фантастика, триллер, HDRip]

в форуме Ужасы, Размер: 1.48 ГБ, Здоровье: 0%

Anonymous

0
0|0

69
2

15 апр 2014, 08:17

Anonymous Перейти к последнему сообщению

В этой теме нет новых непрочитанных сообщений. Скачать торрент Проверен [iPad] Гравитация / Gravity (Альфонсо Куарон / Alfonso Cuarón ) [2013, США, Великобритания , фантастика, триллер, драма, HDRip, SD (576p)] DUB + Original + sub (rus, eng)

в форуме Фильмы для iPod, iPhone, iPad, Размер: 1.61 ГБ, Здоровье: 100%

Гость

0
35|11

78
1

18 май 2015, 10:55

Гость Перейти к последнему сообщению



Сейчас этот форум просматривают: нет зарегистрированных пользователей и гости: 2


Вы не можете начинать темы
Вы не можете отвечать на сообщения
Вы не можете редактировать свои сообщения
Вы не можете удалять свои сообщения
Вы не можете добавлять вложения

Перейти:  

!ВНИМАНИЕ!
 Ресурс не предоставляет электронные версии произведений, а занимается лишь коллекционированием и каталогизацией ссылок, присылаемых и публикуемых на форуме нашими читателями. Если вы являетесь правообладателем какого-либо представленного материала и не желаете чтобы ссылка на него находилась в нашем каталоге, свяжитесь с нами и мы незамедлительно удалим её. Файлы для обмена на трекере предоставлены пользователями сайта, и администрация не несёт ответственности за их содержание. Просьба не заливать файлы, защищенные авторскими правами, а также файлы нелегального содержания!