На всех торрентах на трекере установлена скидка на скачивание в размере 100 процентов(а).
 Возможность скачивания торрента НЕ зависит от ограничений при низком ратио, низком аплоаде, требуемом ратио или требуемом аплоаде.


Начать новую тему Ответить на тему
Статистика раздачи
Размер: 1.46 ГБ | Добавлен: 07 фев 2014, 11:41 | Скачали: 1
Сидеров: 57  [0 байт/сек]    Личеров: 19  [0 байт/сек]
Пред. тема | След. тема 

Автор
Сообщение

СообщениеДобавлено: 07 фев 2014, 11:41 

Страна: США / Jerry Bruckheimer Films, Walt Disney Pictures
Жанр: фэнтези, боевик, мелодрама, приключения
Год выпуска: 2010
Продолжительность: 01:55:53

Перевод: Профессиональный (дублированный) лицензия CEE
Cубтитры: нет
Режиссёр: Майк Ньюэлл / Mike Newell

В ролях: Джейк Джилленхол, Джемма Артертон, Бен Кингсли, Альфред Молина, Стив Туссэн, Тоби Кеббелл, Ричард Койл, Рональд Пикап, Рис Ричи, Гисли Орн Гардарссон.

Описание: Главный герой этой экранизации культовой компьютерной игры, юный принц Дастан всегда побеждал врагов в бою, но потерял королевство из-за козней коварного царедворца. Теперь Дастану предстоит похитить из рук злодеев могущественный магический артефакт, способный повернуть время вспять и сделать своего владельца властелином мира. Помочь одолеть врагов Дастану помогут его блестящие навыки владения холодным оружием, а также недюжинные способности к акробатике и эквилибристике.
Рейтинг



MPAA: - детям до 13 лет просмотр не желателен
Сэмпл: http://multi-up.com/883539
Качество видео: BDRip
Формат видео: AVI

Видео: XviD build 65, 720x304 (2.37:1), 23.976 fps, ~1352 kbps avg, 0.258 bit/pixel
Аудио: 48 kHz, AC3 Dolby Digital, 3/2 (L,C,R,l,r) + LFE ch, ~448 kbps avg (Dub)

MediaInfo
General
Complete name : D\Prince.of.Persia.The.Sands.of.Time.2010.Dub.BDRip.1,46Gb.XviD.AC3.avi
Format : AVI
Format/Info : Audio Video Interleave
File size : 1.46 GiB
Duration : 1h 55mn
Overall bit rate : 1 809 Kbps
Writing application : VirtualDubModRus 1.5.10.2 (build 2542/release)
Writing library : VirtualDubMod build 2542/release

Video
ID : 0
Format : MPEG-4 Visual
Format profile : Advanced Simple@L5
Format settings, BVOP : 1
Format settings, QPel : No
Format settings, GMC : No warppoints
Format settings, Matrix : Custom
Codec ID : XVID
Codec ID/Hint : XviD
Duration : 1h 55mn
Bit rate : 1 352 Kbps
Width : 720 pixels
Height : 304 pixels
Display aspect ratio : 2.35:1
Frame rate : 23.976 fps
Color space : YUV
Chroma subsampling : 4:2:0
Bit depth : 8 bits
Scan type : Progressive
Compression mode : Lossy
Bits/(Pixel*Frame) : 0.258
Stream size : 1.09 GiB (75%)
Writing library : XviD 65

Audio
ID : 1
Format : AC-3
Format/Info : Audio Coding 3
Mode extension : CM (complete main)
Format settings, Endianness : Big
Codec ID : 2000
Duration : 1h 55mn
Bit rate mode : Constant
Bit rate : 448 Kbps
Channel(s) : 6 channels
Channel positions : Front: L C R, Side: L R, LFE
Sampling rate : 48.0 KHz
Bit depth : 16 bits
Compression mode : Lossy
Stream size : 371 MiB (25%)
Alignment : Split accross interleaves
Interleave, duration : 42 ms (1.00 video frame)
Interleave, preload duration : 500 ms
Title : Dub

загрузка...
Правила, инструкции, FAQ!!!
Торрент  Добавлен [07 фев 2014, 11:41] Скачать торрент
Скачать торрент
[ Размер 15.17 КБ / Просмотров 9 ]

Статус  
 
Размер  1.46 ГБ
Приватный: Нет (DHT включён)
.torrent скачан  1
Как залить торрент? | Как скачать Torrent? | Как смотреть и слушать онлайн?  


     Отправить личное сообщение
   
Страница 1 из 1
Показать сообщения за:  Поле сортировки  
Начать новую тему Ответить на тему

   Похожие торренты   Автор   Ответы   Просмотры   Последнее сообщение 
В этой теме нет новых непрочитанных сообщений. Скачать торрент Принц Персии: Пески времени / Prince of Persia: The Sands of Time (Майк Ньюэлл / Mike Newell) [2010, США, фэнтези, боевик, мелодрама, приключения, BDRip] Dub + Original Eng + Subs

в форуме Фантастика, Фэнтези, Размер: 2.18 ГБ, Здоровье: 100%

Anonymous

0
35|11

65
0

12 фев 2014, 08:16

Anonymous Перейти к последнему сообщению

В этой теме нет новых непрочитанных сообщений. Скачать торрент Проверен [iPhone] Принц Персии: Пески времени / Prince of Persia: The Sands of Time (Майк Ньюэлл / Mike Newell) [2010, BDRip] Dub + Original (eng) + Subs (rus, eng)

в форуме Фильмы для iPod, iPhone, iPad, Размер: 1.26 ГБ, Здоровье: 100%

Гость

0
3|1

64
1

18 май 2015, 10:52

Гость Перейти к последнему сообщению

В этой теме нет новых непрочитанных сообщений. Скачать торрент Проверен [MP4 640x272] Принц Персии: Пески времени / Prince of Persia: The Sands of Time (2010) HDRip

в форуме Видео для смартфонов и КПК, Размер: 685.97 МБ, Здоровье: ???%

Anonymous

0
0|1

58
0

25 окт 2014, 23:24

Anonymous Перейти к последнему сообщению

В этой теме нет новых непрочитанных сообщений. Скачать торрент Гарри Поттер и Кубок огня / Harry Potter and the Goblet of Fire (Майк Ньюэлл / Mike Newell) [2005, Фэнтези, детектив, приключения, семейный, BDRip] Dub

в форуме Фантастика, Фэнтези, Размер: 3.65 ГБ, Здоровье: 100%

Anonymous

0
56|19

47
0

22 апр 2014, 11:38

Anonymous Перейти к последнему сообщению

В этой теме нет новых непрочитанных сообщений. Скачать торрент Проверен [iPhone] Гарри Поттер Коллекция / Harry Potter Collection (Крис Коламбус, Альфонсо Куарон, Майк Ньюэлл, Дэвид Йэтс / Chris Columbus, Alfonso Cuarón, Mike Newell, David Yates) [2001-2011, Фэнтези, детектив, приключения, семейный, HDRip, 480х200]

в форуме Фильмы для iPod, iPhone, iPad, Размер: 6.38 ГБ, Здоровье: 100%

Anonymous

0
56|19

30
0

11 май 2015, 01:32

Anonymous Перейти к последнему сообщению



Сейчас этот форум просматривают: нет зарегистрированных пользователей и гости: 2


Вы не можете начинать темы
Вы не можете отвечать на сообщения
Вы не можете редактировать свои сообщения
Вы не можете удалять свои сообщения
Вы не можете добавлять вложения

Перейти:  

!ВНИМАНИЕ!
 Ресурс не предоставляет электронные версии произведений, а занимается лишь коллекционированием и каталогизацией ссылок, присылаемых и публикуемых на форуме нашими читателями. Если вы являетесь правообладателем какого-либо представленного материала и не желаете чтобы ссылка на него находилась в нашем каталоге, свяжитесь с нами и мы незамедлительно удалим её. Файлы для обмена на трекере предоставлены пользователями сайта, и администрация не несёт ответственности за их содержание. Просьба не заливать файлы, защищенные авторскими правами, а также файлы нелегального содержания!