На всех торрентах на трекере установлена скидка на скачивание в размере 100 процентов(а).
 Возможность скачивания торрента НЕ зависит от ограничений при низком ратио, низком аплоаде, требуемом ратио или требуемом аплоаде.


Начать новую тему Ответить на тему
Статистика раздачи
Размер: 1.46 ГБ | Добавлен: 04 фев 2014, 21:25 | Скачали: 0
Сидеров: 56  [0 байт/сек]    Личеров: 19  [0 байт/сек]
Пред. тема | След. тема 

Автор
Сообщение

СообщениеДобавлено: 04 фев 2014, 21:25 

Год выпуска: 2008
Выпущено: США / Marvel Enterprises, Universal Pictures
Жанр: фантастика, боевик, триллер
Продолжительность: 01:52:22
Перевод: Профессиональный (полное дублирование)
BD CEE
Cубтитры: нет
Режиссер:
Луи Летерье / Louis Leterrier
В ролях:
Эдвард Нортон (Bruce Banner), Лив Тайлер (Betty Ross), Тим Рот (Emil Blonsky), Уильям Хёрт (General «Thunderbolt» Ross), Тим Блейк Нельсон (Samuel Sterns), Тай Бурелл (Leonard), Кристина Кэбот (Major Kathleen Sparr), Питер Менса (General Joe Greller), Лу Ферриньо (The Incredible Hulk, Security Guard, озвучка)
Описание:
История доктора Брюса Баннера, который ищет лекарство от своего необычного «заболевания», превращающего его во время эмоционального стресса в гигантского зеленого монстра Халка. Находясь в бегах от армии, стремящейся его захватить, Брюс почти находит лекарство, но все старания идут прахом, когда у Халка вдруг появляется новый, невероятно сильный противник.





Качество: BDRip [BDRemux_HDCLUB]
Формат: AVI

Видео: 720x304 (2.37:1), 23.976 fps, XviD build 73 ~1400 kbps avg, 0.27 bit/pixel
Аудио: 48 kHz, AC3 Dolby Digital, 3/2 (L,C,R,l,r) + LFE ch, ~448.00 kbps avg
Скриншоты
MediaInfo
Код:
Код:
General
Complete name                            : D:\Neveroyatnyi_Hulk_2008_BDRip_by_Dalemake.avi
Format                                   : AVI
Format/Info                              : Audio Video Interleave
File size                                : 1.46 GiB
Duration                                 : 1h 52mn
Overall bit rate                         : 1 858 Kbps
Writing application                      : VirtualDubMod 1.5.10.3 | www.virtualdub-fr.org || (build 2550/release)
Writing library                          : VirtualDubMod build 2550/release

Video
ID                                       : 0
Format                                   : MPEG-4 Visual
Format profile                           : Advanced Simple@L5
Format settings, BVOP                    : 1
Format settings, QPel                    : No
Format settings, GMC                     : No warppoints
Format settings, Matrix                  : Custom
Codec ID                                 : XVID
Codec ID/Hint                            : XviD
Duration                                 : 1h 52mn
Bit rate                                 : 1 401 Kbps
Width                                    : 720 pixels
Height                                   : 304 pixels
Display aspect ratio                     : 2.35:1
Frame rate                               : 23.976 fps
Color space                              : YUV
Chroma subsampling                       : 4:2:0
Bit depth                                : 8 bits
Scan type                                : Progressive
Compression mode                         : Lossy
Bits/(Pixel*Frame)                       : 0.267
Stream size                              : 1.10 GiB (75%)
Writing library                          : XviD 73

Audio
ID                                       : 1
Format                                   : AC-3
Format/Info                              : Audio Coding 3
Mode extension                           : CM (complete main)
Format settings, Endianness              : Big
Codec ID                                 : 2000
Duration                                 : 1h 52mn
Bit rate mode                            : Constant
Bit rate                                 : 448 Kbps
Channel(s)                               : 6 channels
Channel positions                        : Front: L C R, Side: L R, LFE
Sampling rate                            : 48.0 KHz
Bit depth                                : 16 bits
Compression mode                         : Lossy
Stream size                              : 360 MiB (24%)
Alignment                                : Split accross interleaves
Interleave, duration                     : 42 ms (1.00 video frame)
Interleave, preload duration             : 500 ms
загрузка...
Правила, инструкции, FAQ!!!
Торрент  Добавлен [04 фев 2014, 21:25] Скачать торрент
Скачать торрент
[ Размер 15.19 КБ / Просмотров 5 ]

Статус  
 
Размер  1.46 ГБ
Приватный: Нет (DHT включён)
.torrent скачан  0
Как залить торрент? | Как скачать Torrent? | Как смотреть и слушать онлайн?  


     Отправить личное сообщение
   
Страница 1 из 1
Показать сообщения за:  Поле сортировки  
Начать новую тему Ответить на тему

   Похожие торренты   Автор   Ответы   Просмотры   Последнее сообщение 
В этой теме нет новых непрочитанных сообщений. Скачать торрент Невероятный Халк / The Incredible Hulk (Луи Летерье / Louis Leterrier) [2008, США, фантастика, боевик, триллер, BDRip-AVC] Dub

в форуме Фантастика, Фэнтези, Размер: 3.24 ГБ, Здоровье: 100%

Anonymous

0
30|9

33
2

14 апр 2014, 09:26

Anonymous Перейти к последнему сообщению

В этой теме нет новых непрочитанных сообщений. Скачать торрент Проверен Невероятный Халк / The Incredible Hulk (Луи Летерье / Louis Leterrier) [2008 г., фантастика, боевик, триллер, BDRip, 480p] DUB, MVO, Original + sub(rus, eng)

в форуме Фильмы для iPod, iPhone, iPad, Размер: 1.53 ГБ, Здоровье: 100%

Гость

0
9|4

37
1

18 май 2015, 10:38

Гость Перейти к последнему сообщению

В этой теме нет новых непрочитанных сообщений. Скачать торрент Проверен [iPad] Перевозчик 2 / Transporter 2 (Луи Летерье / Louis Leterrier) [2005 г., США, Франция. Боевик, триллер. BDRip 720p]

в форуме Фильмы для iPod, iPhone, iPad, Размер: 2.7 ГБ, Здоровье: 100%

Гость

0
26|8

34
0

13 май 2015, 23:58

Гость Перейти к последнему сообщению

В этой теме нет новых непрочитанных сообщений. Скачать торрент Перевозчик / The Transporter (Луи Летерье / Louis Leterrier) [2002 г., Боевик, Триллер, DVDRip]

в форуме Боевики, Размер: 695.35 МБ, Здоровье: 100%

Anonymous

0
1|0

42
1

10 фев 2014, 13:07

Anonymous Перейти к последнему сообщению

В этой теме нет новых непрочитанных сообщений. Скачать торрент Телепорт / Jumper (Даг Лайман / Doug Liman) [2008, США, Канада, Фантастика, боевик, триллер, приключения, BDRip-AVC] [Open Matte] Dub

в форуме Фантастика, Фэнтези, Размер: 4.18 ГБ, Здоровье: 100%

Anonymous

0
14|5

45
0

16 апр 2014, 07:47

Anonymous Перейти к последнему сообщению



Сейчас этот форум просматривают: нет зарегистрированных пользователей и гости: 1


Вы не можете начинать темы
Вы не можете отвечать на сообщения
Вы не можете редактировать свои сообщения
Вы не можете удалять свои сообщения
Вы не можете добавлять вложения

Перейти:  

!ВНИМАНИЕ!
 Ресурс не предоставляет электронные версии произведений, а занимается лишь коллекционированием и каталогизацией ссылок, присылаемых и публикуемых на форуме нашими читателями. Если вы являетесь правообладателем какого-либо представленного материала и не желаете чтобы ссылка на него находилась в нашем каталоге, свяжитесь с нами и мы незамедлительно удалим её. Файлы для обмена на трекере предоставлены пользователями сайта, и администрация не несёт ответственности за их содержание. Просьба не заливать файлы, защищенные авторскими правами, а также файлы нелегального содержания!