На всех торрентах на трекере установлена скидка на скачивание в размере 100 процентов(а).
 Возможность скачивания торрента НЕ зависит от ограничений при низком ратио, низком аплоаде, требуемом ратио или требуемом аплоаде.


Начать новую тему Ответить на тему
Статистика раздачи
Размер: 1.69 ГБ | Добавлен: 01 фев 2014, 19:07 | Скачали: 0
Сидеров: 4  [0 байт/сек]    Личеров: 2  [0 байт/сек]
Пред. тема | След. тема 

Автор
Сообщение

СообщениеДобавлено: 01 фев 2014, 19:07 

Разрушительница / The Demolitionist

Страна: США
Жанр: фантастика, боевик, триллер
Год выпуска: 1995
Продолжительность: 1:29:30

Перевод: Профессиональный (двухголосый закадровый) Екатеринбург Арт
Cубтитры: нет
Оригинальная аудиодорожка: английский (отдельным файлом)

Режиссер: Роберт Куртцман / Robert Kurtzman

В ролях: Николь Эггерт, Ричард Греко, Брюс Эбботт, Сьюзен Тиррел, Питер Джейсон, Сара Дуглас, Андрас Джонс, Хэзер Лэнгенкэмп, Джек Нэнс, Том Савини, Брюс Кэмпбелл

Описание: Волна преступности захлестнула Метро-сити. Во время одной из специальных операций офицер полиции Алиса Ллойд была зверски убита Бешеным Псом и его бандой. Но, с помощью чудо-технологии сверхсекретного проекта «Лазарус», Алиса Ллойд вернулась из мёртвых.
Теперь она — «Разрушительница», новое поколение сил охраны правопорядка, биогенетически усовершенствованный солдат правосудия, вооружённый всеми видами суперсовременного оружия. «Разрушительница» начинает свой крестовый поход против банды Бешеного Пса. На этот раз война с преступностью ведётся с применением самых крайних мер.




Качество видео: DVDRip
Формат видео: AVI

Видео: XviD 64, 688x528, 4:3, 25 fps, 2121 kbps, 0.234 bit/pixel
Аудио: Russian, AC3 Dolby Digital, 48 kHz, 192 kbps, 2/0 (L,R) ch
Аудио 2: English, AC3 Dolby Digital, 48 kHz, 192 kbps, 2/0 (L,R) ch (отдельным файлом)
Аудио 3: Spanish, AC3 Dolby Digital, 48 kHz, 192 kbps, 2/0 (L,R) ch (отдельным файлом)
MediaInfo
Общее
Полное имя : E:\Торрент\Разрушительница (The Demolitionist 1995)\The Demolitionist (1995).avi
Формат : AVI
Формат/Информация : Audio Video Interleave
Размер файла : 1,45 Гбайт
Продолжительность : 1 ч. 29 м.
Общий поток : 2323 Кбит/сек
Программа кодирования : VirtualDubMod 1.5.10.2 (build 2540/release)
Библиотека кодирования : VirtualDubMod build 2540/release

Видео
Идентификатор : 0
Формат : MPEG-4 Visual
Профиль формата : Advanced Simple@L5
Параметр BVOP формата : 1
Параметр QPel формата : Нет
Параметр GMC формата : Без точки перехода
Параметр матрицы формата : Default (MPEG)
Идентификатор кодека : XVID
Идентификатор кодека/Подсказка : XviD
Продолжительность : 1 ч. 29 м.
Битрейт : 2121 Кбит/сек
Ширина : 688 пикселей
Высота : 528 пикселей
Соотношение сторон : 4:3
Частота кадров : 25,000 кадров/сек
Цветовое пространство : YUV
Субдискретизация насыщенности : 4:2:0
Битовая глубина : 8 бит
Тип развёртки : Прогрессивная
Метод сжатия : С потерями
Бит/(Пиксели*Кадры) : 0.234
Размер потока : 1,33 Гбайт (91%)
Библиотека кодирования : XviD 64

Аудио
Идентификатор : 1
Формат : AC-3
Формат/Информация : Audio Coding 3
Расширение режима : CM (complete main)
Параметр Endianness формата : Big
Идентификатор кодека : 2000
Продолжительность : 1 ч. 29 м.
Вид битрейта : Постоянный
Битрейт : 192 Кбит/сек
Каналы : 2 канала
Расположение каналов : Front: L R
Частота : 48,0 КГц
Битовая глубина : 16 бит
Метод сжатия : С потерями
Размер потока : 123 Мбайт (8%)
Выравнивание : Соединение по промежуткам
Продолжительность промежутка : 40 мс. (1,00 видеокадр)
Время предзагрузки промежутка : 512 мс.
Скриншот c названием фильма
Скриншоты
Постеры и обложки
загрузка...
Правила, инструкции, FAQ!!!
Торрент  Добавлен [01 фев 2014, 19:07] Скачать торрент
Скачать торрент
[ Размер 17.73 КБ / Просмотров 9 ]

Статус  
 
Размер  1.69 ГБ
Приватный: Нет (DHT включён)
.torrent скачан  0
Как залить торрент? | Как скачать Torrent? | Как смотреть и слушать онлайн?  


     Отправить личное сообщение
   
Страница 1 из 1
Показать сообщения за:  Поле сортировки  
Начать новую тему Ответить на тему

   Похожие торренты   Автор   Ответы   Просмотры   Последнее сообщение 
В этой теме нет новых непрочитанных сообщений. Скачать торрент Разрушительница / The Demolitionist (Роберт Керцмэн / Robert Kurtzman) [1995 г., фантастика, боевик, триллер, DVDRip]

в форуме Фантастика, Фэнтези, Размер: 932.14 МБ, Здоровье: 100%

Anonymous

0
5|1

39
0

01 фев 2014, 19:07

Anonymous Перейти к последнему сообщению

В этой теме нет новых непрочитанных сообщений. Скачать торрент Ярость / The Rage (Роберт Куртцман / Robert Kurtzman) [2007 г., ужасы, DVDRip]

в форуме Ужасы, Размер: 1.36 ГБ, Здоровье: 0%

Anonymous

0
0|0

44
0

15 апр 2014, 08:18

Anonymous Перейти к последнему сообщению

В этой теме нет новых непрочитанных сообщений. Скачать торрент Планета страха / Planet Terror (Роберт Родригес / Robert Rodriguez) [2007, США, ужасы, фантастика, боевик, триллер, комедия, прикл, BDRip] Dub MVO AVO Sub Rus + Original Eng

в форуме Ужасы, Размер: 2.85 ГБ, Здоровье: 0%

Anonymous

0
0|0

63
0

13 фев 2014, 11:38

Anonymous Перейти к последнему сообщению

В этой теме нет новых непрочитанных сообщений. Скачать торрент От заката до рассвета / From Dusk Till Dawn (Роберт Родригес / Robert Rodriguez) [1995, США, ужасы, фэнтези, боевик, триллер, комедия, криминал, BDRip] MVO + Original Eng + Sub Rus Eng

в форуме Ужасы, Размер: 2.18 ГБ, Здоровье: 0%

Anonymous

0
0|0

47
0

01 фев 2014, 19:08

Anonymous Перейти к последнему сообщению

В этой теме нет новых непрочитанных сообщений. Скачать торрент Проверен [iPad] Город грехов / Sin city (Фрэнк Миллер, Роберт Родригес, Квентин Тарантино/ Frank Miller, Robert Rodriguez, Quentin Tarantino) [2005, США, Боевик, триллер, криминал, комикс, BDRip, 576p] [Theatrical cut] Dub + Original + sub (rus, eng)

в форуме Фильмы для iPod, iPhone, iPad, Размер: 2.12 ГБ, Здоровье: 100%

Anonymous

0
56|19

70
0

11 май 2015, 01:31

Anonymous Перейти к последнему сообщению



Сейчас этот форум просматривают: нет зарегистрированных пользователей и гости: 1


Вы не можете начинать темы
Вы не можете отвечать на сообщения
Вы не можете редактировать свои сообщения
Вы не можете удалять свои сообщения
Вы не можете добавлять вложения

Перейти:  

!ВНИМАНИЕ!
 Ресурс не предоставляет электронные версии произведений, а занимается лишь коллекционированием и каталогизацией ссылок, присылаемых и публикуемых на форуме нашими читателями. Если вы являетесь правообладателем какого-либо представленного материала и не желаете чтобы ссылка на него находилась в нашем каталоге, свяжитесь с нами и мы незамедлительно удалим её. Файлы для обмена на трекере предоставлены пользователями сайта, и администрация не несёт ответственности за их содержание. Просьба не заливать файлы, защищенные авторскими правами, а также файлы нелегального содержания!