На всех торрентах на трекере установлена скидка на скачивание в размере 100 процентов(а).
 Возможность скачивания торрента НЕ зависит от ограничений при низком ратио, низком аплоаде, требуемом ратио или требуемом аплоаде.


Начать новую тему Ответить на тему
Статистика раздачи
Размер: 1.45 ГБ | Добавлен: 01 фев 2014, 19:06 | Скачали: 3
Сидеров: 24  [0 байт/сек]    Личеров: 7  [0 байт/сек]
Пред. тема | След. тема 

Автор
Сообщение

СообщениеДобавлено: 01 фев 2014, 19:06 

Жизнь хуже обычной / Менее привычная жизнь / A Life Less Ordinary

Страна: США, Великобритания
Жанр: фэнтези, драма, мелодрама, комедия, криминал
Год выпуска: 1997
Продолжительность: 01:39:17

Перевод: Профессиональный (многоголосый закадровый) 1 канал
Cубтитры: нет
Оригинальная аудиодорожка: нет

Режиссер: Дэнни Бойл / Danny Boyle

В ролях: Эван МакГрегор, Кэмерон Диаз, Холли Хантер, Делрой Линдо, Дэн Хедайя, Иэн МакНис, Фрэнк Кэниг, Мел Уинклер, Стенли Туччи, Энн Каллимор Декер

Описание: Между ними не было, да и не могло быть ничего общего. Селин Нэвил — избалованная, богатая девушка, для которой самым страшным ночным кошмаром является внезапно опустевшая кредитка. Роберт Льюис — разнорабочий-неудачник, у которого есть самая сокровенная мечта — написать Знаменитый Американский Бульварный Роман.
Но отец Селин уволил Роберта с работы, и тот выкрал девушку прямо у него из-под носа. Такой дерзкий поступок сразу же был замечен на Небесах. На Землю срочным порядком отправляются два ангела О`Рейли и Джексон, ответственные за «человеческие контакты», с целью проследить за развитием столь необычных отношений…

Доп. информация: Основой рипа послужил HDTV с "Первого HD", донором HDTV. Видеоряд отреставрирован - убраны все вставки с названием фильма и возрастным цензом, и практически со всех кадров удален логотип канала, правда, увы, не всегда незаметно. Здесь более полная картика, в отличие от DVD и WEB-DL, где картинка обрезана до 2,35:1.

Качество видео: HDTVRip
Формат видео: AVI

Видео: MPEG4, XviD, 720x400 (16/9), 25.000 fps, 1 892 Kbps (0.263 bit/pixel)
Аудио: AC-3, 48.0 KHz, 2 ch, 192 Kbps, CBR
MediaInfo
Общее
Полное имя : K:\МОИ РАЗДАЧИ\Жизнь хуже обычной.avi
Формат : AVI
Формат/Информация : Audio Video Interleave
Размер файла : 1,45 Гбайт
Продолжительность : 1 ч. 39 м.
Общий поток : 2094 Кбит/сек
Название фильма : Жизнь хуже обычной / Менее привычная жизнь / A Life Less Ordinary (1997)
Режиссёр : miha2154
Программа кодирования : VirtualDubMod 1.5.10.2 (build 2540/release)
Библиотека кодирования : VirtualDubMod build 2540/release
Правообладатель : специально для BitTorrent трекер RuTracker.org (ex torrents.ru)

Видео
Идентификатор : 0
Формат : MPEG-4 Visual
Профиль формата : Advanced Simple@L5
Параметр BVOP формата : 2
Параметр QPel формата : Нет
Параметр GMC формата : Без точки перехода
Параметр матрицы формата : Default (MPEG)
Идентификатор кодека : XVID
Идентификатор кодека/Подсказка : XviD
Продолжительность : 1 ч. 39 м.
Битрейт : 1892 Кбит/сек
Ширина : 720 пикселей
Высота : 400 пикселей
Соотношение сторон : 16:9
Частота кадров : 25,000 кадров/сек
Цветовое пространство : YUV
Субдискретизация насыщенности : 4:2:0
Битовая глубина : 8 бит
Тип развёртки : Прогрессивная
Метод сжатия : С потерями
Бит/(Пиксели*Кадры) : 0.263
Размер потока : 1,31 Гбайт (90%)
Библиотека кодирования : XviD 1.1.0 (UTC 2005-11-22)

Аудио
Идентификатор : 1
Формат : AC-3
Формат/Информация : Audio Coding 3
Расширение режима : CM (complete main)
Параметр Endianness формата : Big
Идентификатор кодека : 2000
Продолжительность : 1 ч. 39 м.
Вид битрейта : Постоянный
Битрейт : 192 Кбит/сек
Каналы : 2 канала
Расположение каналов : Front: L R
Частота : 48,0 КГц
Битовая глубина : 16 бит
Метод сжатия : С потерями
Размер потока : 136 Мбайт (9%)
Выравнивание : Разделение по промежуткам
Продолжительность промежутка : 40 мс. (1,00 видеокадр)
Время предзагрузки промежутка : 500 мс.
Заголовок : Профессиональный (многоголосый закадровый)
Скриншоты


загрузка...
Правила, инструкции, FAQ!!!
Торрент  Добавлен [01 фев 2014, 19:06] Скачать торрент
Скачать торрент
[ Размер 15.02 КБ / Просмотров 21 ]

Статус  
 
Размер  1.45 ГБ
Приватный: Нет (DHT включён)
.torrent скачан  3
Как залить торрент? | Как скачать Torrent? | Как смотреть и слушать онлайн?  


     Отправить личное сообщение
   
Страница 1 из 1
Показать сообщения за:  Поле сортировки  
Начать новую тему Ответить на тему

   Похожие торренты   Автор   Ответы   Просмотры   Последнее сообщение 
В этой теме нет новых непрочитанных сообщений. Скачать торрент Проверен [iPod] На игле / Trainspotting (Дэнни Бойл / Danny Boyle) [1996 г., Криминальная драма, комедия, HDrip]

в форуме Фильмы для iPod, iPhone, iPad, Размер: 431.85 МБ, Здоровье: 100%

Гость

0
1|0

33
0

11 май 2015, 01:37

Гость Перейти к последнему сообщению

В этой теме нет новых непрочитанных сообщений. Скачать торрент 28 дней спустя / 28 Days Later... (Дэнни Бойл / Danny Boyle) [2002, Великобритания, ужасы, фантастика, триллер, BDRip 720p]

в форуме 720p | 1080p, Размер: 9.81 ГБ, Здоровье: 100%

Anonymous

0
61|19

41
37

25 фев 2014, 22:41

Anonymous Перейти к последнему сообщению

В этой теме нет новых непрочитанных сообщений. Скачать торрент Проверен Невероятная жизнь Уолтера Митти / The Secret Life of Walter Mitty (Бен Стиллер / Ben Stiller) [2013, США, приключения, мелодрама, драма, комедия, фэнтези, BDRip, 480p] Dub + Original + eng sub

в форуме Фильмы для iPod, iPhone, iPad, Размер: 1.65 ГБ, Здоровье: 100%

Anonymous

0
10|4

32
1

12 май 2015, 00:13

Anonymous Перейти к последнему сообщению

В этой теме нет новых непрочитанных сообщений. Скачать торрент Проверен [VIDEO] Невероятная жизнь Уолтера Митти / The Secret Life of Walter Mitty (Бен Стиллер / Ben Stiller) [2013, приключения, мелодрама, драма, комедия, фэнтези, BDRip] [MP4, 960x] Dub, Original, Sub rus

в форуме Видео для смартфонов и КПК, Размер: 1.36 ГБ, Здоровье: 100%

Anonymous

0
34|11

53
0

02 авг 2014, 16:51

Anonymous Перейти к последнему сообщению

В этой теме нет новых непрочитанных сообщений. Скачать торрент Пекло / Sunshine (Дэнни Бойл / Danny Boyle) [2007 г., Фантастика / Триллер, HDRip] Dub

в форуме Фантастика, Фэнтези, Размер: 742.01 МБ, Здоровье: 100%

Anonymous

0
48|15

49
1

14 фев 2014, 07:43

Anonymous Перейти к последнему сообщению



Сейчас этот форум просматривают: нет зарегистрированных пользователей и гости: 2


Вы не можете начинать темы
Вы не можете отвечать на сообщения
Вы не можете редактировать свои сообщения
Вы не можете удалять свои сообщения
Вы не можете добавлять вложения

Перейти:  

!ВНИМАНИЕ!
 Ресурс не предоставляет электронные версии произведений, а занимается лишь коллекционированием и каталогизацией ссылок, присылаемых и публикуемых на форуме нашими читателями. Если вы являетесь правообладателем какого-либо представленного материала и не желаете чтобы ссылка на него находилась в нашем каталоге, свяжитесь с нами и мы незамедлительно удалим её. Файлы для обмена на трекере предоставлены пользователями сайта, и администрация не несёт ответственности за их содержание. Просьба не заливать файлы, защищенные авторскими правами, а также файлы нелегального содержания!