На всех торрентах на трекере установлена скидка на скачивание в размере 100 процентов(а).
 Возможность скачивания торрента НЕ зависит от ограничений при низком ратио, низком аплоаде, требуемом ратио или требуемом аплоаде.


Начать новую тему Ответить на тему
Статистика раздачи
Размер: 1.46 ГБ | Добавлен: 01 фев 2014, 19:05 | Скачали: 0
Сидеров: 19  [0 байт/сек]    Личеров: 6  [0 байт/сек]
Пред. тема | След. тема 

Автор
Сообщение

СообщениеДобавлено: 01 фев 2014, 19:05 

Страна: США
Жанр: Фантастика, Боевик, Приключения, Триллер
Год выпуска: 1998
Продолжительность: 02:10:13

Перевод: Профессиональный (двухголосый закадровый) Garsu Pasaulis
Cубтитры: нет
Оригинальная аудиодорожка: нет

Режиссер: Стивен Хопкинс / Stephen Hopkins

В ролях: Уильям Хёрт, Мими Роджерс, Лэйси Чэберт, Хэзер Грэм, Джек Джонсон, Гари Олдман, Мэтт ЛеБлан, Джаред Харрис, Марк Годдар, Ленни Джеймс

Описание: Действие происходит в 2058 году, когда жить на Земле людям осталось не более двадцати лет – истощилось все. Выдающийся ученый Джон Робинсон и его семья отправляются на суперсовременном звездолете на далекую планету Альфа-прим, пригодную для обитания, чтобы построить там гиперворота, через которые будет осуществлена эвакуация человечества.
Экстремисты подсылают на борт коварного доктора Смита, чтобы тот уничтожил семью Робинсонов и сам корабль. Случайно оставшись на корабле, чтобы не погибнуть, Смит будит Робинсонов и капитана Уэста, лихого боевого пилота. Чтобы избежать столкновения с Солнцем, капитан включает гипердвигатель, и звездолет оказывается затерянным в неизвестной доселе части Космоса.

Сэмпл

За дорожку с кассеты спасибо Fikaloid

Качество видео: HDRip
Формат видео: AVI

Видео: 720x304 (2.37:1), 23.976 fps, XviD build 50 ~1401 kbps avg, 0.27 bit/pixel
Аудио: 48 kHz, AC3 Dolby Digital, 2/0 (L,R) ch, ~192 kbps
MediaInfo
General
Complete name : D:\Затерявшиеся в космосе.avi
Format : AVI
Format/Info : Audio Video Interleave
File size : 1.46 GiB
Duration : 2h 10mn
Overall bit rate : 1 603 Kbps
Movie name : Затерянные в космосе / Lost in Space
Director : vasapel
Genre : Фантастика, Боевик
Writing application : VirtualDubMod 1.5.10.2 (build 2540/release)
Writing library : VirtualDubMod build 2540/release
Original source form/Name : Movie
Copyright : rutracker.org / All Films
Comment : Год: 1998 / Бюджет: $80 000 000

Video
ID : 0
Format : MPEG-4 Visual
Format profile : Advanced Simple@L5
Format settings, BVOP : 3
Format settings, QPel : No
Format settings, GMC : No warppoints
Format settings, Matrix : Custom
Codec ID : XVID
Codec ID/Hint : XviD
Duration : 2h 10mn
Bit rate : 1 402 Kbps
Width : 720 pixels
Height : 304 pixels
Display aspect ratio : 2.35:1
Frame rate : 23.976 fps
Color space : YUV
Chroma subsampling : 4:2:0
Bit depth : 8 bits
Scan type : Progressive
Compression mode : Lossy
Bits/(Pixel*Frame) : 0.267
Stream size : 1.27 GiB (87%)
Writing library : XviD 1.2.1 (UTC 2008-12-04)

Audio
ID : 1
Format : AC-3
Format/Info : Audio Coding 3
Mode extension : CM (complete main)
Format settings, Endianness : Big
Codec ID : 2000
Duration : 2h 10mn
Bit rate mode : Constant
Bit rate : 192 Kbps
Channel(s) : 2 channels
Channel positions : Front: L R
Sampling rate : 48.0 KHz
Bit depth : 16 bits
Compression mode : Lossy
Stream size : 179 MiB (12%)
Alignment : Split accross interleaves
Interleave, duration : 42 ms (1.00 video frame)
Interleave, preload duration : 500 ms
Скриншоты
загрузка...
Правила, инструкции, FAQ!!!
Торрент  Добавлен [01 фев 2014, 19:05] Скачать торрент
Скачать торрент
[ Размер 15.19 КБ / Просмотров 11 ]

Статус  
 
Размер  1.46 ГБ
Приватный: Нет (DHT включён)
.torrent скачан  0
Как залить торрент? | Как скачать Torrent? | Как смотреть и слушать онлайн?  


     Отправить личное сообщение
   
Страница 1 из 1
Показать сообщения за:  Поле сортировки  
Начать новую тему Ответить на тему

   Похожие торренты   Автор   Ответы   Просмотры   Последнее сообщение 
В этой теме нет новых непрочитанных сообщений. Скачать торрент Проверен [iPad] Хищник 2 / Predator 2 (Стивен Хопкинс / Stephen Hopkins) [1990, фантастика, боевик, триллер, BDRip]

в форуме Фильмы для iPod, iPhone, iPad, Размер: 2.35 ГБ, Здоровье: 100%

Гость

0
5|1

26
0

14 май 2015, 00:20

Гость Перейти к последнему сообщению

В этой теме нет новых непрочитанных сообщений. Скачать торрент Лига выдающихся джентльменов / The League of Extraordinary Gentlemen (Стивен Норрингтон / Stephen Norrington) [2003 г., Фантастика, Боевик, Приключения, HDRip]

в форуме Фантастика, Фэнтези, Размер: 1.46 ГБ, Здоровье: 100%

Anonymous

0
11|4

61
0

29 апр 2014, 13:57

Anonymous Перейти к последнему сообщению

В этой теме нет новых непрочитанных сообщений. Скачать торрент Бросок кобры / G.I. Joe: The Rise of Cobra (Стивен Соммерс / Stephen Sommers) [2009 г., Чехия, США, фантастика, боевик, приключения, экшн, BDRip] Dub + Orig + Sub (Rus, Eng)

в форуме Фантастика, Фэнтези, Размер: 2.19 ГБ, Здоровье: 100%

Anonymous

0
56|19

56
0

12 фев 2014, 08:16

Anonymous Перейти к последнему сообщению

В этой теме нет новых непрочитанных сообщений. Скачать торрент Проверен [iPad] Мисс Медоуз / Miss Meadows (Карен Ли Хопкинс / Karen Leigh Hopkins ) [2014, США, Триллер, драма, HDRip, SD (576p)] MVO + Original + sub (eng)

в форуме Фильмы для iPod, iPhone, iPad, Размер: 1.54 ГБ, Здоровье: 100%

Гость

0
12|4

28
0

14 май 2015, 00:02

Гость Перейти к последнему сообщению

В этой теме нет новых непрочитанных сообщений. Скачать торрент Проверен Мартышки в космосе: Ответный удар 3Д / Space Chimps 2: Zartog Strikes Back 3D (Джон Х. Уильямс / John H. Williams) [2010 г., Фантастика, комедия, приключения, семейный, мультфильм, HDrip, 720p] Anaglyph / Анаглиф

в форуме 3D Мультфильмы, Размер: 2.1 ГБ, Здоровье: 100%

Anonymous

0
1|0

10
0

07 сен 2016, 17:46

Anonymous Перейти к последнему сообщению



Сейчас этот форум просматривают: нет зарегистрированных пользователей и гости: 1


Вы не можете начинать темы
Вы не можете отвечать на сообщения
Вы не можете редактировать свои сообщения
Вы не можете удалять свои сообщения
Вы не можете добавлять вложения

Перейти:  

!ВНИМАНИЕ!
 Ресурс не предоставляет электронные версии произведений, а занимается лишь коллекционированием и каталогизацией ссылок, присылаемых и публикуемых на форуме нашими читателями. Если вы являетесь правообладателем какого-либо представленного материала и не желаете чтобы ссылка на него находилась в нашем каталоге, свяжитесь с нами и мы незамедлительно удалим её. Файлы для обмена на трекере предоставлены пользователями сайта, и администрация не несёт ответственности за их содержание. Просьба не заливать файлы, защищенные авторскими правами, а также файлы нелегального содержания!