На всех торрентах на трекере установлена скидка на скачивание в размере 100 процентов(а).
 Возможность скачивания торрента НЕ зависит от ограничений при низком ратио, низком аплоаде, требуемом ратио или требуемом аплоаде.


Начать новую тему Ответить на тему
Статистика раздачи
Размер: 1.46 ГБ | Добавлен: 09 янв 2014, 00:15 | Скачали: 1
Сидеров: 0  [0 байт/сек]    Личеров: 0  [0 байт/сек]
Пред. тема | След. тема 

Автор
Сообщение

СообщениеДобавлено: 09 янв 2014, 00:15 

Начало / Inception (2010) BDRip

«Твой разум - место преступления.»
Русское название: Начало
Оригинальное название: Inception
Год выпуска: 2010
Производство: США, Великобритания, Warner Bros. Pictures, Legendary Pictures, Syncopy
Жанр: Фантастика, боевик, триллер, драма, детектив
Перевод: Авторский (одноголосый закадровый)
Язык субтитров: Нет

Режиссер: Кристофер Нолан
Продюсер: Кристофер Нолан, Эмма Томас, Закария Алауи
Актеры: Леонардо ДиКаприо, Джозеф Гордон-Левитт, Эллен Пейдж, Том Харди, Кен Ватанабе, Дилип Рао, Киллиан Мерфи, Том Беренджер, Марион Котийяр, Пит Постлетуэйт, Майкл Кейн, Лукас Хаас, Клер Джир, Тейлор Джир, Тохору Масамуне, Юдзи Окумото, Эрл Кэмерон, Миранда Нолан, Расс Фега, Тим Келлехер, Талула Райли, Сильви Лагюна, Верджил Брэмли, Марк Флайшманн, Карл Джиллиард, Алекс Ломбард, Николь Пуллиам, Майкл Гэстон, Эндрю Плевин

Описание фильма:
Кобб - талантливый вор, лучший из лучших в опасном искусстве извлечения: он крадет ценные секреты из глубин подсознания во время сна, когда человеческий разум наиболее уязвим. Редкие способности Кобба сделали его ценным игроком в привычном к предательству мире промышленного шпионажа, но они же превратили его в извечного беглеца и лишили всего, что он когда-либо любил. И вот у Кобба появляется шанс исправить ошибки. Его последнее дело может вернуть все назад, но для этого ему нужно совершить невозможное - инициацию. Вместо идеальной кражи Кобб и его команда спецов должны будут провернуть обратное. Теперь их задача - не украсть идею, а внедрить ее. Если у них получится, это и станет идеальным преступлением. Но никакое планирование или мастерство не могут подготовить команду к встрече с опасным противником, который, кажется, предугадывает каждый их ход. Врагом, увидеть которого мог бы лишь Кобб.



Продолжительность: 02:28:07
Качество видео: BDRip

Видеокодек: XviD
Битрейт видео: 1142 Кбит/сек
Размер кадра: 720x304
Аудио 1: Русский, MP3, 2 ch, 128 Кбит/сек Гаврилов
Аудио 2: Русский, MP3, 2 ch, 128 Кбит/сек Сербин
Код:
Код:
Общее
Полное имя                               : E:\Раздачи\Видео\Inception (2010) BDRip.avi
Формат                                   : AVI
Формат/Информация                        : Audio Video Interleave
Размер файла                             : 1,46 Гбайт
Продолжительность                        : 2 ч. 28 м.
Общий поток                              : 1412 Кбит/сек
Программа кодирования                    : VirtualDubMod 1.5.10.3 | [url=http://www.virtualdub-fr.org]www.virtualdub-fr.org[/url] || (build 2550/release)
Библиотека кодирования                   : VirtualDubMod build 2550/release

Видео
Идентификатор                            : 0
Формат                                   : MPEG-4 Visual
Профиль формата                          : Advanced Simple@L5
Параметр BVOP формата                    : 1
Параметр QPel формата                    : Нет
Параметр GMC формата                     : Без точки перехода
Параметр матрицы формата                 : Выборочная
Идентификатор кодека                     : XVID
Идентификатор кодека/Подсказка           : XviD
Продолжительность                        : 2 ч. 28 м.
Битрейт                                  : 1142 Кбит/сек
Ширина                                   : 720 пикселей
Высота                                   : 304 пикселя
Соотношение сторон                       : 2,35:1
Частота кадров                           : 23,976 кадра/сек
Цветовое пространство                    : YUV
Субдискретизация насыщенности            : 4:2:0
Битовая глубина                          : 8 бит
Тип развёртки                            : Прогрессивная
Метод сжатия                             : С потерями
Бит/(Пиксели*Кадры)                      : 0.218
Размер потока                            : 1,18 Гбайт (81%)
Библиотека кодирования                   : XviD 65

Аудио #1
Идентификатор                            : 1
Формат                                   : MPEG Audio
Версия формата                           : Version 1
Профиль формата                          : Layer 3
Идентификатор кодека                     : 55
Идентификатор кодека/Подсказка           : MP3
Продолжительность                        : 2 ч. 28 м.
Вид битрейта                             : Постоянный
Битрейт                                  : 128 Кбит/сек
Каналы                                   : 2 канала
Частота                                  : 48,0 КГц
Метод сжатия                             : С потерями
Размер потока                            : 136 Мбайт (9%)
Выравнивание                             : Соединение по промежуткам
Продолжительность промежутка             : 42  мс. (1,00 видеокадр)
Время предзагрузки промежутка            : 504  мс.
Библиотека кодирования                   : L3.99r
Настройки программы                      : -m s -V 4 -q 2 -lowpass 17 -b 128

Аудио #2
Идентификатор                            : 2
Формат                                   : MPEG Audio
Версия формата                           : Version 1
Профиль формата                          : Layer 3
Идентификатор кодека                     : 55
Идентификатор кодека/Подсказка           : MP3
Продолжительность                        : 2 ч. 28 м.
Вид битрейта                             : Постоянный
Битрейт                                  : 128 Кбит/сек
Каналы                                   : 2 канала
Частота                                  : 48,0 КГц
Метод сжатия                             : С потерями
Размер потока                            : 136 Мбайт (9%)
Выравнивание                             : Соединение по промежуткам
Продолжительность промежутка             : 42  мс. (1,00 видеокадр)
Время предзагрузки промежутка            : 504  мс.
Библиотека кодирования                   : L3.99r
Настройки программы                      : -m s -V 4 -q 2 -lowpass 17 -b 128
[center][font=Arial]Скриншоты:

загрузка...
Правила, инструкции, FAQ!!!
Торрент  Добавлен [09 янв 2014, 00:15] Скачать торрент
Скачать торрент
[ Размер 15.39 КБ / Просмотров 5 ]

Статус  
 
Размер  1.46 ГБ
Приватный: Нет (DHT включён)
.torrent скачан  1
Как залить торрент? | Как скачать Torrent? | Как смотреть и слушать онлайн?  


     Отправить личное сообщение
   
Страница 1 из 1
Показать сообщения за:  Поле сортировки  
Начать новую тему Ответить на тему

   Похожие торренты   Автор   Ответы   Просмотры   Последнее сообщение 
В этой теме нет новых непрочитанных сообщений. Скачать торрент Проверен Molchanoff (Вячеслав Молчанов) - Inception (Начало) (2013) [MP3|320 кб/с]<Heavy Metal>

в форуме Русский Рок, Размер: 49.76 МБ, Здоровье: 0%

Anonymous

0
0|0

36
1

15 июл 2014, 08:39

Anonymous Перейти к последнему сообщению

В этой теме нет новых непрочитанных сообщений. Скачать торрент Проверен Я – начало / I Origins (2014) BDRip 720p | P | iTunes

в форуме 720p | 1080p, Размер: 6.59 ГБ, Здоровье: 100%

Гость

0
206|56

83
426

20 дек 2014, 00:50

Гость Перейти к последнему сообщению

В этой теме нет новых непрочитанных сообщений. Геракл: Начало легенды / The Legend of Hercules (2014) BDRip 720p | Чистый звук

в форуме Новинки кино, Размер: 4.5 ГБ, Здоровье: 0%

Anonymous

0
0|0

205
4

06 апр 2014, 19:19

Anonymous Перейти к последнему сообщению

В этой теме нет новых непрочитанных сообщений. Скачать торрент Секретная служба Санты / Приготовление и начало / Prep & Landing (2009) BDRip 720p | Лицензия

в форуме Зарубежные мультфильмы (HD Video), Размер: 690.33 МБ, Здоровье: 100%

Anonymous

0
7|1

45
0

29 дек 2013, 10:20

Anonymous Перейти к последнему сообщению

В этой теме нет новых непрочитанных сообщений. Скачать торрент Проверен Драконы: Гонки бесстрашных. Начало / Dragons: Dawn of the Dragon Racers (2014) BDRip | D | Лицензия

в форуме Зарубежные мультфильмы, Размер: 509.97 МБ, Здоровье: 100%

Anonymous

0
601|70

133
2129

24 окт 2014, 21:47

Anonymous Перейти к последнему сообщению



Сейчас этот форум просматривают: нет зарегистрированных пользователей и гости: 1


Вы не можете начинать темы
Вы не можете отвечать на сообщения
Вы не можете редактировать свои сообщения
Вы не можете удалять свои сообщения
Вы не можете добавлять вложения

Перейти:  

!ВНИМАНИЕ!
 Ресурс не предоставляет электронные версии произведений, а занимается лишь коллекционированием и каталогизацией ссылок, присылаемых и публикуемых на форуме нашими читателями. Если вы являетесь правообладателем какого-либо представленного материала и не желаете чтобы ссылка на него находилась в нашем каталоге, свяжитесь с нами и мы незамедлительно удалим её. Файлы для обмена на трекере предоставлены пользователями сайта, и администрация не несёт ответственности за их содержание. Просьба не заливать файлы, защищенные авторскими правами, а также файлы нелегального содержания!