На всех торрентах на трекере установлена скидка на скачивание в размере 100 процентов(а).
 Возможность скачивания торрента НЕ зависит от ограничений при низком ратио, низком аплоаде, требуемом ратио или требуемом аплоаде.


Начать новую тему Ответить на тему
Статистика раздачи
Размер: 1.48 ГБ | Добавлен: 03 янв 2014, 12:43 | Скачали: 0
Сидеров: 27  [0 байт/сек]    Личеров: 9  [0 байт/сек]
Пред. тема | След. тема 

Автор
Сообщение

СообщениеДобавлено: 03 янв 2014, 12:43 

Дружинники / The Watch

Страна: США
Жанр: фантастика, комедия
Год выпуска: 2012
Продолжительность: 01:41:56
Перевод: Профессиональный (дублированный)

+ Оригинальная звуковая дорожка (English)
Cубтитры: нет
Режиссер: Акива Шаффер / Akiva Schaffer

В ролях: Бен Стиллер, Винс Вон, Джона Хилл, Ричард Айоаде, Розмари ДеУитт, Уилл Форте, Эрин Мориарти, Николас Браун, Р. Ли Эрми, Билли Крудап.

Описание: Сюжет фильма разворачивается вокруг дружной компании соседей, организовавших дружину ради патрулирования окрестностей и поддержания порядка. В действительности благие намерения были лишь поводом хотя бы изредка сбегать от семьи, дабы покутить вечерком в сугубо мужской компании. Безоблачная жизнь заканчивается в тот момент, когда соседский дозор случайно узнаёт о заговоре с целью уничтожить мир.
Автор рипа: Scarabey
Качество видео: HDRip
Формат видео: AVI | Sample
Видео: 720x304 (2.37:1), 23.976 fps, XviD build 50 ~1421 kbps avg, 0.27 bit/pixel
Аудио 1: 48 kHz, AC3 Dolby Digital, 3/2 (L,C,R,l,r) + LFE ch, ~448.00 kbps avg (RUS)
Аудио 2: 48 kHz, AC3 Dolby Digital, 2/0 (L,R) ch, ~192.00 kbps avg (ENG)
Скриншоты

Медиаинфо
Format : AVI
Format/Info : Audio Video Interleave
File size : 1.48 GiB
Duration : 1h 41mn
Overall bit rate : 2 077 Kbps
Writing application : VirtualDubMod 1.5.10.2 (build 2540/release)
Writing library : VirtualDubMod build 2540/release

Video
ID : 0
Format : MPEG-4 Visual
Format profile : Advanced Simple@L5
Format settings, BVOP : Yes
Format settings, QPel : No
Format settings, GMC : No warppoints
Format settings, Matrix : Custom
Codec ID : XVID
Codec ID/Hint : XviD
Duration : 1h 41mn
Bit rate : 1 423 Kbps
Width : 720 pixels
Height : 304 pixels
Display aspect ratio : 2.35:1
Frame rate : 23.976 fps
Color space : YUV
Chroma subsampling : 4:2:0
Bit depth : 8 bits
Scan type : Progressive
Bits/(Pixel*Frame) : 0.271
Stream size : 1.01 GiB (69%)
Writing library : XviD 1.2.1 (UTC 2008-12-04)

Audio #1
ID : 1
Format : AC-3
Format/Info : Audio Coding 3
Mode extension : CM (complete main)
Codec ID : 2000
Duration : 1h 41mn
Bit rate mode : Constant
Bit rate : 448 Kbps
Channel(s) : 6 channels
Channel positions : Front: L C R, Side: L R, LFE
Sampling rate : 48.0 KHz
Bit depth : 16 bits
Stream size : 327 MiB (22%)
Alignment : Split accross interleaves
Interleave, duration : 42 ms (1.00 video frame)
Interleave, preload duration : 500 ms

Audio #2
ID : 2
Format : AC-3
Format/Info : Audio Coding 3
Mode extension : CM (complete main)
Codec ID : 2000
Duration : 1h 41mn
Bit rate mode : Constant
Bit rate : 192 Kbps
Channel(s) : 2 channels
Channel positions : Front: L R
Sampling rate : 48.0 KHz
Bit depth : 16 bits
Stream size : 140 MiB (9%)
Alignment : Aligned on interleaves
Interleave, duration : 42 ms (1.00 video frame)
Interleave, preload duration : 512 ms
загрузка...
Правила, инструкции, FAQ!!!
Торрент  Добавлен [03 янв 2014, 12:43] Скачать торрент
Скачать торрент
[ Размер 15.28 КБ / Просмотров 10 ]

Статус  
 
Размер  1.48 ГБ
Приватный: Нет (DHT включён)
.torrent скачан  0
Как залить торрент? | Как скачать Torrent? | Как смотреть и слушать онлайн?  


     Отправить личное сообщение
   
Страница 1 из 1
Показать сообщения за:  Поле сортировки  
Начать новую тему Ответить на тему

   Похожие торренты   Автор   Ответы   Просмотры   Последнее сообщение 
В этой теме нет новых непрочитанных сообщений. Скачать торрент Проверен [iPad] Охотник на зомби / Zombie Hunter (К. Кинг / K. King ) [2013, США, фантастика, боевик, триллер, комедия, HDRip, SD (576p)] VO + Original + sub (rus, eng)

в форуме Фильмы для iPod, iPhone, iPad, Размер: 1.6 ГБ, Здоровье: 100%

Гость

0
5|1

62
0

18 май 2015, 10:33

Гость Перейти к последнему сообщению

В этой теме нет новых непрочитанных сообщений. Скачать торрент Проверен [iPad] Не худо бы похудеть / Mince alors! (Шарлотт де Тюркейм / Charlotte de Turckheim ) [2012, Франция, комедия, HDRip, SD (576p)] MVO + Original

в форуме Фильмы для iPod, iPhone, iPad, Размер: 1.71 ГБ, Здоровье: 100%

Гость

0
29|10

15
0

12 май 2015, 00:09

Гость Перейти к последнему сообщению

В этой теме нет новых непрочитанных сообщений. Скачать торрент Трюфель / Truffe (Ким Нгуйен / Kim Nguyen) [2008, Канада, Комедия, фантастика, DVDRip] Sub rus + original fre

в форуме Комедии, Размер: 757.36 МБ, Здоровье: 0%

Anonymous

0
0|0

20
0

01 апр 2014, 09:34

Anonymous Перейти к последнему сообщению

В этой теме нет новых непрочитанных сообщений. Скачать торрент Проверен Кин-дза-дза! (Георгий Данелия) [1986, СССР, Фантастика, драма, комедия, приключения, BDRip 1080p] + Sub Rus + Original Rus

в форуме Наше кино (HD Video), Размер: 11.52 ГБ, Здоровье: 100%

Anonymous

0
57|19

47
1

12 апр 2015, 11:05

Anonymous Перейти к последнему сообщению

В этой теме нет новых непрочитанных сообщений. Скачать торрент Проверен Легок на помине (Евгений Абызов) [2014, Россия, комедия, фантастика, BDRip 1080p] + Original Rus

в форуме Наше кино (HD Video), Размер: 5.85 ГБ, Здоровье: 100%

Anonymous

0
59|19

27
1

12 апр 2015, 15:01

Anonymous Перейти к последнему сообщению



Сейчас этот форум просматривают: нет зарегистрированных пользователей и гости: 1


Вы не можете начинать темы
Вы не можете отвечать на сообщения
Вы не можете редактировать свои сообщения
Вы не можете удалять свои сообщения
Вы не можете добавлять вложения

Перейти:  

!ВНИМАНИЕ!
 Ресурс не предоставляет электронные версии произведений, а занимается лишь коллекционированием и каталогизацией ссылок, присылаемых и публикуемых на форуме нашими читателями. Если вы являетесь правообладателем какого-либо представленного материала и не желаете чтобы ссылка на него находилась в нашем каталоге, свяжитесь с нами и мы незамедлительно удалим её. Файлы для обмена на трекере предоставлены пользователями сайта, и администрация не несёт ответственности за их содержание. Просьба не заливать файлы, защищенные авторскими правами, а также файлы нелегального содержания!