На всех торрентах на трекере установлена скидка на скачивание в размере 100 процентов(а).
 Возможность скачивания торрента НЕ зависит от ограничений при низком ратио, низком аплоаде, требуемом ратио или требуемом аплоаде.


Начать новую тему Ответить на тему
Статистика раздачи
Размер: 1.46 ГБ | Добавлен: 03 янв 2014, 11:29 | Скачали: 1
Сидеров: 56  [0 байт/сек]    Личеров: 19  [0 байт/сек]
Пред. тема | След. тема 

Автор
Сообщение

СообщениеДобавлено: 03 янв 2014, 11:29 

Год выпуска: 2011
Страна: США, Великобритания
Киностудия: Big Talk Productions, Пифагор, Relativity Media
Жанр: фантастика, комедия, приключения
Продолжительность: 01:43:40

Перевод: Профессиональный (дублированный)
Cубтитры: Русский - форсированные
Оригинальная аудиодорожка: нет

Режиссер: Грег Моттола / Greg Mottola

В ролях: Саймон Пегг, Ник Фрост, Сет Роген, Джейн Линч, Сигурни Уивер, Джейсон Бейтман, Кристен Уиг, Билл Хэйдер, Блайт Даннер, Джефри Тэмбор

Описание: Два английских гика отправляются на одно из самых значимых фанатских событий в области фантастики — конвент ComicCon в Америке. По пути, неподалёку от известной Зоны 51, они встречают сбежавшего инопланетянина по имени Пол, который просит помочь ему добраться домой. Пытаясь спастись от правительственных агентов, герои случайно похищают женщину и натыкаются на обкуренную свидетельницу аварийной посадки Пола на Землю.

Семпл
Бюджет: $40 000 000

Тип релиза: BDRip
Контейнер: AVI

Видео: 720x304 (2.35:1), 23.976 fps, XviD MPEG-4 ~1619 kbps avg, 0.308 bit/pixel
Аудио: 48 kHz, AC3 6 ch, 384.00 kbps Constant
Формат субтитров: SoftSub (srt)
MediaInfo
Общее
Полное имя : Pol.Sekretnij.materialchik.2011.D.DVDRip.avi
Формат : AVI
Формат/Информация : Audio Video Interleave
Размер файла : 1,46 Гбайт
Продолжительность : 1 ч. 43 м.
Общий поток : 2012 Кбит/сек
Программа кодирования : VirtualDubMod 1.5.10.3 (build 2550/release)
Библиотека кодирования : VirtualDubMod build 2550/release

Видео
Идентификатор : 0
Формат : MPEG-4 Visual
Профиль формата : Advanced Simple@L5
Параметр BVOP формата : 1
Параметр QPel формата : Нет
Параметр GMC формата : Без точки перехода
Параметр матрицы формата : Выборочная
Идентификатор кодека : XVID
Идентификатор кодека/Подсказка : XviD
Продолжительность : 1 ч. 43 м.
Битрейт : 1619 Кбит/сек
Ширина : 720 пикс.
Высота : 304 пикс.
Соотношение сторон : 2,35:1
Частота кадров : 23,976 кадр/сек
Цветовое пространство : YUV
Подвыборка цветности : 4:2:0
Битовая глубина : 8 бит
Тип развёртки : Прогрессивная
Метод сжатия : С потерями
Бит/(Пиксели*Кадры) : 0.308
Размер потока : 1,17 Гбайт (80%)
Библиотека кодирования : XviD 1.2.1 (UTC 2008-12-04)

Аудио
Идентификатор : 1
Формат : AC-3
Формат/Информация : Audio Coding 3
Расширение режима : CM (complete main)
Идентификатор кодека : 2000
Продолжительность : 1 ч. 43 м.
Вид битрейта : Постоянный
Битрейт : 384 Кбит/сек
Каналы : 6 каналов
Расположение каналов : Front: L C R, Side: L R, LFE
Частота : 48,0 КГц
Битовая глубина : 16 бит
Метод сжатия : С потерями
Размер потока : 285 Мбайт (19%)
Выравнивание : Разделение по промежуткам
Продолжительность промежутка : 42 мс. (1,00 видеокадр)
Время предзагрузки промежутка : 500 ms
Скриншот c названием фильма
Скриншоты
загрузка...
Правила, инструкции, FAQ!!!
Торрент  Добавлен [03 янв 2014, 11:29] Скачать торрент
Скачать торрент
[ Размер 30 КБ / Просмотров 11 ]

Статус  
 
Размер  1.46 ГБ
Приватный: Нет (DHT включён)
.torrent скачан  1
Как залить торрент? | Как скачать Torrent? | Как смотреть и слушать онлайн?  


     Отправить личное сообщение
   
Страница 1 из 1
Показать сообщения за:  Поле сортировки  
Начать новую тему Ответить на тему

   Похожие торренты   Автор   Ответы   Просмотры   Последнее сообщение 
В этой теме нет новых непрочитанных сообщений. Скачать торрент Пол: Секретный материальчик / Paul (Грег Моттола / Greg Mottola) [2011, США, Великобритания, фантастика, комедия, приключения, BDRip 720p] [Theatrical Cut]

в форуме 720p | 1080p, Размер: 5 ГБ, Здоровье: 100%

Anonymous

0
47|16

16
0

25 фев 2014, 22:39

Anonymous Перейти к последнему сообщению

В этой теме нет новых непрочитанных сообщений. Скачать торрент Проверен [MP4 640x360] Пол: Секретный материальчик / Paul (2011) HDRip [Nokia S^3]

в форуме Видео для смартфонов и КПК, Размер: 856.28 МБ, Здоровье: 0%

Anonymous

0
0|0

31
0

25 окт 2014, 23:17

Anonymous Перейти к последнему сообщению

В этой теме нет новых непрочитанных сообщений. Скачать торрент Проверен Ведьмина гора / Race to Witch Mountain (Энди Фикмен / Andy Fickman) [2009, фантастика, триллер, комедия, приключения, BDRip, 480p] DUB, Original + sub (rus(forced), rus,

в форуме Фильмы для iPod, iPhone, iPad, Размер: 1.22 ГБ, Здоровье: 100%

Гость

0
12|4

31
0

11 май 2015, 01:32

Гость Перейти к последнему сообщению

В этой теме нет новых непрочитанных сообщений. Скачать торрент Свидание моей мечты / Employee of the Month (Грег Кулидж / Greg Coolidge) [2006, мелодрама, комедия, BDRip] Dub + Original

в форуме Драмы, Мелодрамы, Размер: 2.18 ГБ, Здоровье: 100%

Anonymous

0
11|4

28
0

16 апр 2014, 07:49

Anonymous Перейти к последнему сообщению

В этой теме нет новых непрочитанных сообщений. Скачать торрент Судный день / Doomsday (Нил Маршалл / Neil Marshall) [2008, США, Германия, Великобритания, ЮАР, фантастика, боевик, триллер, BDRip] [Театральная версия / Theatrical Cut] Dub + Original + Subs (Rus, Eng)

в форуме Фантастика, Фэнтези, Размер: 2.18 ГБ, Здоровье: 100%

Anonymous

0
39|13

60
0

19 фев 2014, 09:53

Anonymous Перейти к последнему сообщению



Сейчас этот форум просматривают: нет зарегистрированных пользователей и гости: 2


Вы не можете начинать темы
Вы не можете отвечать на сообщения
Вы не можете редактировать свои сообщения
Вы не можете удалять свои сообщения
Вы не можете добавлять вложения

Перейти:  

!ВНИМАНИЕ!
 Ресурс не предоставляет электронные версии произведений, а занимается лишь коллекционированием и каталогизацией ссылок, присылаемых и публикуемых на форуме нашими читателями. Если вы являетесь правообладателем какого-либо представленного материала и не желаете чтобы ссылка на него находилась в нашем каталоге, свяжитесь с нами и мы незамедлительно удалим её. Файлы для обмена на трекере предоставлены пользователями сайта, и администрация не несёт ответственности за их содержание. Просьба не заливать файлы, защищенные авторскими правами, а также файлы нелегального содержания!