На всех торрентах на трекере установлена скидка на скачивание в размере 100 процентов(а).
 Возможность скачивания торрента НЕ зависит от ограничений при низком ратио, низком аплоаде, требуемом ратио или требуемом аплоаде.


Начать новую тему Ответить на тему
Статистика раздачи
Размер: 2.18 ГБ | Добавлен: 01 янв 2014, 01:23 | Скачали: 0
Сидеров: 21  [0 байт/сек]    Личеров: 1  [0 байт/сек]
Пред. тема | След. тема 

Автор
Сообщение

СообщениеДобавлено: 01 янв 2014, 01:23 

[font=Georgia]Русское название: Рождественская история
Оригинальное название: A Christmas Carol
Год выпуска: 2009
Производство: ImageMovers / Walt Disney Pictures, США
Жанр: Мультфильм, Ужасы, Фантастика, Фэнтези, Триллер, Драма, Комедия, Семейный
Перевод: Профессиональный (полное дублирование) [Лицензия]
Субтитры: Отсутствуют

Дата мировой премьеры: 3 ноября 2009, ...
Дата российской премьеры: 19 ноября 2009, «BVSPR Disney»
Дата выхода DVD релиза: 9 ноября 2010, «Уолт Дисней Компани СНГ», ...
Дата выхода Blu-Ray релиза: 9 ноября 2010, «Уолт Дисней Компани СНГ», ...

Режиссер: Роберт Земекис / Robert Zemeckis
Персонажи: Джим Керри, Гари Олдман, Колин Фёрт, Кэри Элвис, Робин Райт, Боб Хоскинс, Стив Валентайн, Дэрил Сабара, Сэйдж Райан, Эмбер Гейни Миде

Описание:
Это викторианская поучительная история о старом и ожесточившемся скупердяе Эбенезере Скрудже, который в течение одной ночи переживает испытание глубокого очищения. Мистер Скрудж - финансист/денежный меняла, который посвятил всю свою жизнь накоплению богатства. Он презирает всё, кроме денег, включая дружбу, любовь и рождественские праздники.





Продолжительность: 01:35:48
Качество видео: BDRip

Видеокодек: XviD
Битрейт видео: ~2351 Кбит/сек
Размер кадра: 720 x 304
Аудиокодек: AC3 5.1
Аудио 1: Русский 48,0 КГц, AC3, 3/2 (L,C,R,l,r) + LFE ch, ~448 Кбит/сек
Аудио 2: Английский 48,0 КГц, AC3, 3/2 (L,C,R,l,r) + LFE ch, ~448 Кбит/сек
Общее
Полное имя : D:\Rozhdestvenskaya.istoriya.2009.BDRip.avi
Формат : AVI
Формат/Информация : Audio Video Interleave
Профиль формата : OpenDML
Размер файла : 2,18 Гбайт
Продолжительность : 1 ч. 35 м.
Общий поток : 3265 Кбит/сек
Программа кодирования : VirtualDubMod 1.5.10.2 (build 2540/release)
Библиотека кодирования : VirtualDubMod build 2540/release

Видео
Идентификатор : 0
Формат : MPEG-4 Visual
Профиль формата : Advanced Simple@L5
Параметр BVOP формата : 1
Параметр QPel формата : Нет
Параметр GMC формата : Без точки перехода
Параметр матрицы формата : Выборочная
Идентификатор кодека : XVID
Идентификатор кодека/Подсказка : XviD
Продолжительность : 1 ч. 35 м.
Битрейт : 2351 Кбит/сек
Ширина : 720 пикселей
Высота : 304 пикселя
Соотношение сторон : 2,35:1
Частота кадров : 23,976 кадра/сек
Цветовое пространство : YUV
Субдискретизация насыщенности : 4:2:0
Битовая глубина : 8 бит
Тип развёртки : Прогрессивная
Метод сжатия : С потерями
Бит/(Пиксели*Кадры) : 0.448
Размер потока : 1,57 Гбайт (72%)
Библиотека кодирования : XviD 63

Аудио #1
Идентификатор : 1
Формат : AC-3
Формат/Информация : Audio Coding 3
Расширение режима : CM (complete main)
Идентификатор кодека : 2000
Продолжительность : 1 ч. 35 м.
Вид битрейта : Постоянный
Битрейт : 448 Кбит/сек
Каналы : 6 каналов
Расположение каналов : Front: L C R, Side: L R, LFE
Частота : 48,0 КГц
Битовая глубина : 16 бит
Метод сжатия : С потерями
Размер потока : 307 Мбайт (14%)
Выравнивание : Разделение по промежуткам
Продолжительность промежутка : 42 мс. (1,00 видеокадр)
Время предзагрузки промежутка : 500 мс.

Аудио #2
Идентификатор : 2
Формат : AC-3
Формат/Информация : Audio Coding 3
Расширение режима : CM (complete main)
Идентификатор кодека : 2000
Продолжительность : 1 ч. 35 м.
Вид битрейта : Постоянный
Битрейт : 448 Кбит/сек
Каналы : 6 каналов
Расположение каналов : Front: L C R, Side: L R, LFE
Частота : 48,0 КГц
Битовая глубина : 16 бит
Метод сжатия : С потерями
Размер потока : 307 Мбайт (14%)
Выравнивание : Разделение по промежуткам
Продолжительность промежутка : 42 мс. (1,00 видеокадр)
Время предзагрузки промежутка : 500 мс.
Режиссер картины, Роберт Земекис не работал с «Walt Disney Company» с 1988 года. Именно тогда он поставил свой анимированный фильм «Кто подставил кролика Роджера».
«Рождественская история» это уже третья по счёту диснеевская адаптация классической повести Чарльза Диккенса. В 1983 году вышел мультфильм «Веселое Рождество у Микки», в которой приняли участие практически все персонажи диснеевской анимационной классики. Девять лет спустя, в 1992 году, на экраны вышла кукольная версия «Рождественский гимн Маппет-шоу», прокатчиком которой была также студия Disney.
Это первый проект Джима Керри на студии Disney за всю его многолетнюю актёрскую карьеру.
В доме Крэтчитов можно заметить портрет автора «Рождественской истории» Чарльза Диккенса, висящий над камином.
Когда Скрудж падает в свою могилу, мы можем увидеть момент, когда камера приближается к лицу Призрака Грядущего Рождества, и его пустые глазницы вспыхивают голубым огнём. Это прямая отсылка к Смерти из цикла «Плоский мир» популярного британского писателя Терри Пратчетта: «Его глазницы пусты, но в их глубине горят крохотные синие огоньки».

загрузка...
Правила, инструкции, FAQ!!!
Торрент  Добавлен [01 янв 2014, 01:23] Скачать торрент
Скачать торрент
[ Размер 11.76 КБ / Просмотров 14 ]

Статус  
 
Размер  2.18 ГБ
Приватный: Нет (DHT включён)
.torrent скачан  0
Как залить торрент? | Как скачать Torrent? | Как смотреть и слушать онлайн?  


     Отправить личное сообщение
   
Страница 1 из 1
Показать сообщения за:  Поле сортировки  
Начать новую тему Ответить на тему

   Похожие торренты   Автор   Ответы   Просмотры   Последнее сообщение 
В этой теме нет новых непрочитанных сообщений. Скачать торрент Рождественская история / A Christmas Carol (2009) [1080p] BDRip

в форуме 720p | 1080p, Размер: 5.89 ГБ, Здоровье: 100%

Anonymous

0
11|1

23
0

01 янв 2014, 01:13

Anonymous Перейти к последнему сообщению

В этой теме нет новых непрочитанных сообщений. Скачать торрент Проверен Рождественская история 3Д / A Christmas Carol 3D (Роберт Земекис / Robert Zemeckis) [2009, фэнтези, драма, семейный, мультфильм, BDrip 720p] OverUnder / Вертикальная стереопара

в форуме HD-Video в 3D, Размер: 4.07 ГБ, Здоровье: 100%

Anonymous

0
12|4

60
0

02 ноя 2014, 09:54

Anonymous Перейти к последнему сообщению

В этой теме нет новых непрочитанных сообщений. Скачать торрент Проверен Рождественская история 3Д / A Christmas Carol 3D (Роберт Земекис / Robert Zemeckis) [2009, фэнтези, драма, семейный, мультфильм, BDrip 1080p] OverUnder / Вертикальная стереопара

в форуме 3D Мультфильмы, Размер: 6.98 ГБ, Здоровье: 100%

Anonymous

0
2|1

9
0

07 сен 2016, 18:13

Anonymous Перейти к последнему сообщению

В этой теме нет новых непрочитанных сообщений. Скачать торрент Проверен Рождественская история 3Д / A Christmas Carol 3D (Роберт Земекис / Robert Zemeckis) [2009, фэнтези, драма, семейный, мультфильм, BDrip-AVC] Half SideBySide / Горизонтальная анаморфная стереопара

в форуме 3D Мультфильмы, Размер: 7.42 ГБ, Здоровье: 100%

Anonymous

0
16|5

7
0

07 сен 2016, 18:03

Anonymous Перейти к последнему сообщению

В этой теме нет новых непрочитанных сообщений. Скачать торрент Проверен Рождественская история в 3Д / A Christmas Carol 3D (Роберт Земекис / Robert Zemeckis) [2009, мультфильм, фэнтези, драма, семейный, BDrip-AVC] Half OverUnder / Вертикальная анаморфная стереопара

в форуме HD-Video в 3D, Размер: 6.19 ГБ, Здоровье: 100%

Anonymous

0
56|19

78
0

02 ноя 2014, 09:55

Anonymous Перейти к последнему сообщению



Сейчас этот форум просматривают: нет зарегистрированных пользователей и гости: 2


Вы не можете начинать темы
Вы не можете отвечать на сообщения
Вы не можете редактировать свои сообщения
Вы не можете удалять свои сообщения
Вы не можете добавлять вложения

Перейти:  

!ВНИМАНИЕ!
 Ресурс не предоставляет электронные версии произведений, а занимается лишь коллекционированием и каталогизацией ссылок, присылаемых и публикуемых на форуме нашими читателями. Если вы являетесь правообладателем какого-либо представленного материала и не желаете чтобы ссылка на него находилась в нашем каталоге, свяжитесь с нами и мы незамедлительно удалим её. Файлы для обмена на трекере предоставлены пользователями сайта, и администрация не несёт ответственности за их содержание. Просьба не заливать файлы, защищенные авторскими правами, а также файлы нелегального содержания!