На всех торрентах на трекере установлена скидка на скачивание в размере 100 процентов(а).
 Возможность скачивания торрента НЕ зависит от ограничений при низком ратио, низком аплоаде, требуемом ратио или требуемом аплоаде.


Начать новую тему Ответить на тему
Статистика раздачи
Размер: 1.16 ГБ | Добавлен: 07 ноя 2012, 16:57 | Скачали: 0
Сидеров: 1  [0 байт/сек]    Личеров: 0  [0 байт/сек]
Пред. тема | След. тема 

Автор
Сообщение

СообщениеДобавлено: 07 ноя 2012, 16:57 

Описание: Лейла и представить себе не могла, что каникулы у тети Язмин в Берштадте могут быть такими незабываемыми. Не успела она выйти из машины, как оказалась в самом центре захватывающих приключений, ведь Фритц Фукс, приятель тети Язмин, знает секретное место, где спрятаны легендарные сокровища…

Страна: Германия
Студия: STUDIO.TV.FILM, ZDF
Жанр: Приключения, детский
Год выпуска: 2011
Продолжительность: 01:28:41

Перевод: Профессиональный (двухголосый закадровый) Нью Медиа
Cубтитры: нет
Режиссер: Петер Тимм / Peter Timm

В фильме снимались: Гвидо Хаммесфар, Доминик Хорвиц, Руби_О. Фи, Петра Шмидт-Шаллер, Хельмут Краус, Санам Афрасте, Сабина Орлеанс, Юлиан Зенгельманн, Джоэл Басман, Аарон Денкель, Юлиус Фельсберг, Иван Вргоч

Качество видео: DVB
Формат видео: MPEG-TS

Видео: MPEG4 Video (H264) 720x576 Bit rate 1652Kbps Bits/(Pixel*Frame) 0.159
Аудио: MP2 48000Hz 2ch 128 Kbps


General
ID : A
Complete name : F:\SatRip\_Заготовка\Охота за сокровищами Ганнибала\Охота за сокровищами Ганнибала.ts
Format : MPEG-TS
File size : 1.16 GiB
Duration : 1h 28mn
Overall bit rate : 1 874 Kbps

Video
ID : 1401 (0x579)
Menu ID : 401 (0x191)
Format : AVC
Format/Info : Advanced Video Codec
Format profile : Main@L3.0
Format settings, CABAC : Yes
Format settings, ReFrames : 3 frames
Format settings, GOP : M=4, N=24
Duration : 1h 28mn
Bit rate : 1 652 Kbps
Width : 720 pixels
Height : 576 pixels
Display aspect ratio : 4:3
Frame rate : 25.000 fps
Standard : Component
Color space : YUV
Chroma subsampling : 4:2:0
Bit depth : 8 bits
Scan type : Progressive
Bits/(Pixel*Frame) : 0.159
Stream size : 1.02 GiB (88%)
Color primaries : BT.470-6 System B, BT.470-6 System G, BT.601-6 625, BT.1358 625, BT.1700 625 PAL, BT.1700 625 SECAM
Transfer characteristics : BT.470-6 System B, BT.470-6 System G
Matrix coefficients : BT.470-6 System B, BT.470-6 System G, BT.601-6 625, BT.1358 625, BT.1700 625 PAL, BT.1700 625 SECAM, IEC 61966-2-4 601

Audio
ID : 2401 (0x961)
Menu ID : 401 (0x191)
Format : MPEG Audio
Format version : Version 1
Format profile : Layer 2
Duration : 1h 28mn
Bit rate mode : Constant
Bit rate : 128 Kbps
Channel(s) : 2 channels
Sampling rate : 48.0 KHz
Video delay : 45ms
Stream size : 81.2 MiB (7%)
Language : Russian








загрузка...
Правила, инструкции, FAQ!!!
Торрент  Добавлен [07 ноя 2012, 16:57] Скачать торрент
Скачать торрент
[ Размер 12.18 КБ / Просмотров 22 ]

Статус
Проверен 
 
Размер  1.16 ГБ
Приватный: Нет (DHT включён)
.torrent скачан  0
Как залить торрент? | Как скачать Torrent? | Как смотреть и слушать онлайн?  


     Отправить личное сообщение
   
Страница 1 из 1
Показать сообщения за:  Поле сортировки  
Начать новую тему Ответить на тему

   Похожие торренты   Автор   Ответы   Просмотры   Последнее сообщение 
В этой теме нет новых непрочитанных сообщений. Скачать торрент Лев Булгак | Охота за сокровищами. Бытовые металлоискатели и их применение (2007) [PDF]

в форуме На досуге, Размер: 15.74 МБ, Здоровье: 100%

Anonymous

0
13|1

55
3

24 мар 2014, 22:46

Anonymous Перейти к последнему сообщению

В этой теме нет новых непрочитанных сообщений. Скачать торрент Проверен (Punk Rock) Охота На Человека (ОНЧ) - Охота На Человека - 2011, MP3, 320 kbps

в форуме Русский Рок, Размер: 144.4 МБ, Здоровье: 0%

Anonymous

0
0|0

2
0

22 авг 2016, 01:43

Anonymous Перейти к последнему сообщению

В этой теме нет новых непрочитанных сообщений. Скачать торрент М. Кравков | За сокровищами реки Тунгуски (1931) [FB2]

в форуме Детская литература, Размер: 2.59 МБ, Здоровье: 100%

Anonymous

0
4|1

30
0

24 янв 2014, 21:44

Anonymous Перейти к последнему сообщению

В этой теме нет новых непрочитанных сообщений. Скачать торрент Проверен Охотники за сокровищами / The Monuments Men (2014) BDRip 1080p | Лицензия

в форуме 720p | 1080p, Размер: 9.37 ГБ, Здоровье: 100%

Anonymous

0
61|4

45
703

30 май 2014, 07:27

Anonymous Перейти к последнему сообщению

В этой теме нет новых непрочитанных сообщений. Скачать торрент Охотники за сокровищами / The Hessen Affair (2009) HDRip | Лицензия

в форуме Триллеры, Размер: 2.18 ГБ, Здоровье: ???%

Anonymous

0
0|1

48
0

27 янв 2014, 10:17

Anonymous Перейти к последнему сообщению



Сейчас этот форум просматривают: нет зарегистрированных пользователей и гости: 1


Вы не можете начинать темы
Вы не можете отвечать на сообщения
Вы не можете редактировать свои сообщения
Вы не можете удалять свои сообщения
Вы не можете добавлять вложения

Перейти:  

!ВНИМАНИЕ!
 Ресурс не предоставляет электронные версии произведений, а занимается лишь коллекционированием и каталогизацией ссылок, присылаемых и публикуемых на форуме нашими читателями. Если вы являетесь правообладателем какого-либо представленного материала и не желаете чтобы ссылка на него находилась в нашем каталоге, свяжитесь с нами и мы незамедлительно удалим её. Файлы для обмена на трекере предоставлены пользователями сайта, и администрация не несёт ответственности за их содержание. Просьба не заливать файлы, защищенные авторскими правами, а также файлы нелегального содержания!