На всех торрентах на трекере установлена скидка на скачивание в размере 100 процентов(а).
 Возможность скачивания торрента НЕ зависит от ограничений при низком ратио, низком аплоаде, требуемом ратио или требуемом аплоаде.


Начать новую тему Ответить на тему
Статистика раздачи
Размер: 2.19 ГБ | Добавлен: 08 янв 2015, 18:31 | Скачали: 0
Сидеров: 0  [0 байт/сек]    Личеров: 0  [0 байт/сек]
Пред. тема | След. тема 

Автор
Сообщение

СообщениеДобавлено: 08 янв 2015, 18:31 

Год выпуска: 2006
Производство: Германия, США, Великобритания
Жанр: Приключения, боевик, семейный, триллер

Режиссер: Джеффри Сакс
Актеры: Алекс Петтифер, Алисия Сильверстоун, Микки Рурк, Софи Оконедо, Билл Найи, Эван МакГрегор, Дэмиэн Льюис, Стивен Фрай, Сара Болджер, Энди Серкис, Мисси Пайл, Робби Колтрейн, Эшли Уолтерс, Алекс Баррет, Ричард Хув, Ричард Джеймс, Джимми Карр, Джулиан Бакнэлл, Мартин Хердман, Морган Уолтерс, Дэвид Ройл, Джэми Кенна

Описание фильма:
Алекс Райдер — 14-летний сирота, воспитываемый дядей. Когда его опекун неожиданно погибает, Алекс узнает, что тот был агентом Британской секретной службы. Правительство просит Алекса продолжить выполнение дядиной миссии — расследования преступных дел крупного бизнесмена. Тут Алексу и приходится применить все его умения и знания, которые передал ему опекун: альпинизм, подводное плавание, боевые искусства и умение обращаться с новейшими техническими изобретениями. В руках Алекса — судьба всего мира.

Перевод: Дублированный



Продолжительность: 01:33:15
Качество видео: BDRip

Видеокодек: XviD
Битрейт видео: ~2445 Кбит/с
Размер кадра: 720x304
Аудио:
1. AC3, 6 ch, 448 Кбит/с - русский
2. AC3, 6 ch, 448 Кбит/с - английский

Общее
Полное имя : C:\NNM\Громобой\Gromoboj 2006 BDRip.avi
Формат : AVI
Формат/Информация : Audio Video Interleave
Профиль формата : OpenDML
Размер файла : 2,19 Гбайт
Продолжительность : 1 ч. 33 м.
Общий поток : 3359 Кбит/сек
Программа кодирования : VirtualDubMod 1.5.10.3
Библиотека кодирования : VirtualDubMod build 2550/release

Видео
Идентификатор : 0
Формат : MPEG-4 Visual
Профиль формата : Advanced Simple@L5
Параметр BVOP формата : 2
Параметр QPel формата : Нет
Параметр GMC формата : Без точки перехода
Параметр матрицы формата : Default (MPEG)
Идентификатор кодека : XVID
Идентификатор кодека/Подсказка : XviD
Продолжительность : 1 ч. 33 м.
Битрейт : 2445 Кбит/сек
Ширина : 720 пикселей
Высота : 304 пикселя
Соотношение сторон : 2,35:1
Частота кадров : 23,976 кадра/сек
Цветовое пространство : YUV
Субдискретизация насыщенности : 4:2:0
Битовая глубина : 8 бит
Тип развёртки : Прогрессивная
Метод сжатия : С потерями
Бит/(Пиксели*Кадры) : 0.466
Размер потока : 1,59 Гбайт (73%)
Библиотека кодирования : XviD 73

Аудио #1
Идентификатор : 1
Формат : AC-3
Формат/Информация : Audio Coding 3
Расширение режима : CM (complete main)
Идентификатор кодека : 2000
Продолжительность : 1 ч. 33 м.
Вид битрейта : Постоянный
Битрейт : 448 Кбит/сек
Каналы : 6 каналов
Расположение каналов : Front: L C R, Side: L R, LFE
Частота : 48,0 КГц
Битовая глубина : 16 бит
Метод сжатия : С потерями
Размер потока : 299 Мбайт (13%)
Выравнивание : Разделение по промежуткам
Продолжительность промежутка : 42 мс. (1,00 видеокадр)
Время предзагрузки промежутка : 500 мс.

Аудио #2
Идентификатор : 2
Формат : AC-3
Формат/Информация : Audio Coding 3
Расширение режима : CM (complete main)
Идентификатор кодека : 2000
Продолжительность : 1 ч. 33 м.
Вид битрейта : Постоянный
Битрейт : 448 Кбит/сек
Каналы : 6 каналов
Расположение каналов : Front: L C R, Side: L R, LFE
Частота : 48,0 КГц
Битовая глубина : 16 бит
Метод сжатия : С потерями
Размер потока : 299 Мбайт (13%)
Выравнивание : Разделение по промежуткам
Продолжительность промежутка : 42 мс. (1,00 видеокадр)
Время предзагрузки промежутка : 500 мс.
Скриншоты:
[center]
загрузка...
Правила, инструкции, FAQ!!!
Торрент  Добавлен [08 янв 2015, 18:31] Скачать торрент
Скачать торрент
[ Размер 11.62 КБ / Просмотров 11 ]

Статус
Проверен 
 
Размер  2.19 ГБ
Приватный: Нет (DHT включён)
.torrent скачан  0
Как залить торрент? | Как скачать Torrent? | Как смотреть и слушать онлайн?  


     Отправить личное сообщение
   
Страница 1 из 1
Показать сообщения за:  Поле сортировки  
Начать новую тему Ответить на тему

   Похожие торренты   Автор   Ответы   Просмотры   Последнее сообщение 
В этой теме нет новых непрочитанных сообщений. Скачать торрент Энтони Хоровитц | Громобой. Белый пик [2005-2006] [RTF, FB2]

в форуме Детективы и Боевики, Размер: 13.09 МБ, Здоровье: 100%

Anonymous

0
1|1

76
0

18 апр 2014, 00:25

Anonymous Перейти к последнему сообщению

В этой теме нет новых непрочитанных сообщений. Скачать торрент Проверен Младенец на $30 000 000 / Bo bui gai wak (2006) BDRip | P

в форуме Боевики, Размер: 1.45 ГБ, Здоровье: 100%

Гость

0
22|2

76
15

17 ноя 2016, 22:27

Гость Перейти к последнему сообщению

В этой теме нет новых непрочитанных сообщений. Скачать торрент Проверен Младенец на $30 000 000 / Bo bui gai wak (2006) BDRip [H.264]

в форуме Боевики, Размер: 3.82 ГБ, Здоровье: 0%

Гость

0
0|0

69
1

16 янв 2015, 17:39

Гость Перейти к последнему сообщению

В этой теме нет новых непрочитанных сообщений. Скачать торрент Шалун / Little Man (2006) BDRip

в форуме Комедии, Размер: 1.46 ГБ, Здоровье: 0%

Anonymous

0
0|0

73
0

09 дек 2013, 09:32

Anonymous Перейти к последнему сообщению

В этой теме нет новых непрочитанных сообщений. Скачать торрент Проверен 300 спартанцев / 300 (2006) BDRip 1080p

в форуме 720p | 1080p, Размер: 7.76 ГБ, Здоровье: 100%

Anonymous

0
82|3

122
785

19 май 2014, 13:08

Anonymous Перейти к последнему сообщению



Сейчас этот форум просматривают: нет зарегистрированных пользователей и гости: 1


Вы не можете начинать темы
Вы не можете отвечать на сообщения
Вы не можете редактировать свои сообщения
Вы не можете удалять свои сообщения
Вы не можете добавлять вложения

Перейти:  

!ВНИМАНИЕ!
 Ресурс не предоставляет электронные версии произведений, а занимается лишь коллекционированием и каталогизацией ссылок, присылаемых и публикуемых на форуме нашими читателями. Если вы являетесь правообладателем какого-либо представленного материала и не желаете чтобы ссылка на него находилась в нашем каталоге, свяжитесь с нами и мы незамедлительно удалим её. Файлы для обмена на трекере предоставлены пользователями сайта, и администрация не несёт ответственности за их содержание. Просьба не заливать файлы, защищенные авторскими правами, а также файлы нелегального содержания!