На всех торрентах на трекере установлена скидка на скачивание в размере 100 процентов(а).
 Возможность скачивания торрента НЕ зависит от ограничений при низком ратио, низком аплоаде, требуемом ратио или требуемом аплоаде.


Начать новую тему Ответить на тему
Статистика раздачи
Размер: 3.75 ГБ | Добавлен: 13 ноя 2014, 16:24 | Скачали: 1
Сидеров: 9  [0 байт/сек]    Личеров: 2  [0 байт/сек]
Пред. тема | След. тема 

Автор
Сообщение

СообщениеДобавлено: 13 ноя 2014, 16:24 

Название: Сердце Пирата
Оригинальное название: Stortebeker
Год выхода: 2006
Жанр: Приключения, история
Режиссер: Мигель Александр
В ролях: Кен Дукен, Клер Кайм, Готтфрид Йон, Мигель Херц-Кестранек, Франк Геиринг, Лина Будзеикаите, Антонио Уоннек…

О фильме: «История о самом легендарном пирате Европы»
Конец ХIV века. Родители отправляют старшего сына Яна учиться в Гамбург, а младшего — Клауса — в монастырь. Не успели дети отъехать от родного дома, как на их глазах разбойники убивают родителей и сжигают дом. Только благодаря преданному монаху Вигбольду Клаус сумел пережить потрясение. Через несколько лет Клаус находит в Гамбурге брата Яна и свою давнюю подругу — Элизабет Прен. От нее он узнает, что ей прочат в женихи Симона фон Валленрода, отца которого Клаус подозревает в убийстве своих родителей. Но Прены и Валленроды — богатые и уважаемые люди, а Клаус — бедняк. И вот он становится пиратом…



Страна: Испания, Германия
Студия: Bavaria Film, ICC, Steinweg Emotion Pictures…
Продолжительность: 01:29:24 + 01:29:47
Перевод: Профессиональный (многоголосый закадровый) – студия "Пифагор" для ГТРК "Культура"

Файл
Кодек: h.264 (MKV)
Качество: DVDRip-AVC
Видео: AVC, 1024 x 592, ~2 031 Kbps
Звук: Russian / Deutsch: AC3, 3/2+LFE ch, 448Kbps
Субтитры: нет

Семпл

General
Unique ID : 184668574919553728128685597262448528001 (0x8AEDDFB2D4A322DEA7AB9C61D1398A81)
Complete name : D: Stortebeker (2006) DVDRip-AVC1 seriya.mkv
Format : Matroska
Format version : Version 4 / Version 2
File size : 1.88 GiB
Duration : 1h 29mn
Overall bit rate : 3 007 Kbps
Encoded date : UTC 2014-11-12 18:05:56
Writing application : mkvmerge v7.1.0 ('Good Love') 64bit built on Jul 27 2014 13:06:55
Writing library : libebml v1.3.0 + libmatroska v1.4.1
DURATION : 01:29:24.992000000
NUMBER_OF_FRAMES : 167656
NUMBER_OF_BYTES : 300439552
_STATISTICS_WRITING_APP : mkvmerge v7.1.0 ('Good Love') 64bit built on Jul 27 2014 13:06:55
_STATISTICS_WRITING_DATE_UTC : 2014-11-12 18:05:56
_STATISTICS_TAGS : BPS DURATION NUMBER_OF_FRAMES NUMBER_OF_BYTES

Video
ID : 1
Format : AVC
Format/Info : Advanced Video Codec
Format profile : Main@L4.1
Format settings, CABAC : Yes
Format settings, ReFrames : 4 frames
Codec ID : V_MPEG4/ISO/AVC
Duration : 1h 29mn
Bit rate : 2 051 Kbps
Width : 1 024 pixels
Height : 592 pixels
Display aspect ratio : 1.730
Frame rate mode : Constant
Frame rate : 25.000 fps
Color space : YUV
Chroma subsampling : 4:2:0
Bit depth : 8 bits
Scan type : Progressive
Bits/(Pixel*Frame) : 0.135
Stream size : 1.28 GiB (68%)
Language : English
Default : Yes
Forced : No

Audio #1
ID : 2
Format : AC-3
Format/Info : Audio Coding 3
Mode extension : CM (complete main)
Format settings, Endianness : Big
Codec ID : A_AC3
Duration : 1h 29mn
Bit rate mode : Constant
Bit rate : 448 Kbps
Channel(s) : 6 channels
Channel positions : Front: L C R, Side: L R, LFE
Sampling rate : 48.0 KHz
Bit depth : 16 bits
Compression mode : Lossy
Stream size : 287 MiB (15%)
Language : Russian
Default : Yes
Forced : No

Audio #2
ID : 3
Format : AC-3
Format/Info : Audio Coding 3
Mode extension : CM (complete main)
Format settings, Endianness : Big
Codec ID : A_AC3
Duration : 1h 29mn
Bit rate mode : Constant
Bit rate : 448 Kbps
Channel(s) : 6 channels
Channel positions : Front: L C R, Side: L R, LFE
Sampling rate : 48.0 KHz
Bit depth : 16 bits
Compression mode : Lossy
Stream size : 287 MiB (15%)
Language : German
Default : No
Forced : No
General
Unique ID : 188755130389575186116394930285905802724 (0x8E00EA70633F6968865063A7EB0575E4)
Complete name : D: Stortebeker (2006) DVDRip-AVC2 seriya.mkv
Format : Matroska
Format version : Version 4 / Version 2
File size : 1.87 GiB
Duration : 1h 29mn
Overall bit rate : 2 986 Kbps
Encoded date : UTC 2014-11-12 18:12:44
Writing application : mkvmerge v7.1.0 ('Good Love') 64bit built on Jul 27 2014 13:06:55
Writing library : libebml v1.3.0 + libmatroska v1.4.1
DURATION : 01:29:47.424000000
NUMBER_OF_FRAMES : 168357
NUMBER_OF_BYTES : 301695744
_STATISTICS_WRITING_APP : mkvmerge v7.1.0 ('Good Love') 64bit built on Jul 27 2014 13:06:55
_STATISTICS_WRITING_DATE_UTC : 2014-11-12 18:12:44
_STATISTICS_TAGS : BPS DURATION NUMBER_OF_FRAMES NUMBER_OF_BYTES

Video
ID : 1
Format : AVC
Format/Info : Advanced Video Codec
Format profile : Main@L4.1
Format settings, CABAC : Yes
Format settings, ReFrames : 4 frames
Codec ID : V_MPEG4/ISO/AVC
Duration : 1h 29mn
Bit rate : 2 031 Kbps
Width : 1 024 pixels
Height : 592 pixels
Display aspect ratio : 1.730
Frame rate mode : Constant
Frame rate : 25.000 fps
Color space : YUV
Chroma subsampling : 4:2:0
Bit depth : 8 bits
Scan type : Progressive
Bits/(Pixel*Frame) : 0.134
Stream size : 1.27 GiB (68%)
Language : English
Default : Yes
Forced : No

Audio #1
ID : 2
Format : AC-3
Format/Info : Audio Coding 3
Mode extension : CM (complete main)
Format settings, Endianness : Big
Codec ID : A_AC3
Duration : 1h 29mn
Bit rate mode : Constant
Bit rate : 448 Kbps
Channel(s) : 6 channels
Channel positions : Front: L C R, Side: L R, LFE
Sampling rate : 48.0 KHz
Bit depth : 16 bits
Compression mode : Lossy
Stream size : 288 MiB (15%)
Language : Russian
Default : Yes
Forced : No

Audio #2
ID : 3
Format : AC-3
Format/Info : Audio Coding 3
Mode extension : CM (complete main)
Format settings, Endianness : Big
Codec ID : A_AC3
Duration : 1h 29mn
Bit rate mode : Constant
Bit rate : 448 Kbps
Channel(s) : 6 channels
Channel positions : Front: L C R, Side: L R, LFE
Sampling rate : 48.0 KHz
Bit depth : 16 bits
Compression mode : Lossy
Stream size : 288 MiB (15%)
Language : German
Default : No
Forced : No
загрузка...
Правила, инструкции, FAQ!!!
Торрент  Добавлен [13 ноя 2014, 16:24] Скачать торрент
Скачать торрент
[ Размер 20 КБ / Просмотров 16 ]

Статус
Проверен 
 
Размер  3.75 ГБ
Приватный: Нет (DHT включён)
.torrent скачан  1
Как залить торрент? | Как скачать Torrent? | Как смотреть и слушать онлайн?  


     Отправить личное сообщение
   
Страница 1 из 1
Показать сообщения за:  Поле сортировки  
Начать новую тему Ответить на тему

   Похожие торренты   Автор   Ответы   Просмотры   Последнее сообщение 
В этой теме нет новых непрочитанных сообщений. Скачать торрент Проверен Снайперы / Выстрел сквозь сердце/ / Shot Through The Heart (1998) DVDRip-AVC | P2

в форуме Боевики, Размер: 2.18 ГБ, Здоровье: 100%

Anonymous

0
99|33

86
11

24 ноя 2014, 21:09

Anonymous Перейти к последнему сообщению

В этой теме нет новых непрочитанных сообщений. Скачать торрент Мое сердце / The Heart of Me (Тадеус О'Салливан / Thaddeus O'Sullivan) [2002 г., драма, DVDRip]

в форуме Драмы, Мелодрамы, Размер: 807.52 МБ, Здоровье: 100%

Anonymous

0
39|13

34
0

24 апр 2014, 14:07

Anonymous Перейти к последнему сообщению

В этой теме нет новых непрочитанных сообщений. Скачать торрент Последний сентябрь / September Dawn / 2006 / DVDRip (Кристофер Кэйн) [2006 г., Вестерн, драма, исторический, DVDRip]

в форуме Вестерн, Размер: 1.36 ГБ, Здоровье: 100%

Anonymous

0
14|2

376
0

12 фев 2014, 08:15

Anonymous Перейти к последнему сообщению

В этой теме нет новых непрочитанных сообщений. Скачать торрент Проверен Идеи Вашего Дома: Особенности Монтажа Кухонного Гарнитура : Спец Выпуск 4/2006 : (DVDRip) [2006 г., Обучающий, DVDRip]

в форуме Строительство, ремонт и дизайн, Размер: 266.01 МБ, Здоровье: 100%

Гость

0
90|3

31
2

18 янв 2016, 19:45

Гость Перейти к последнему сообщению

В этой теме нет новых непрочитанных сообщений. Скачать торрент Проверен (Rock) Пирата Бэнд - Решето. Живая музыка - 2000, MP3, 256 kbps

в форуме Русский Рок, Размер: 72.61 МБ, Здоровье: 50%

Anonymous

0
2|4

5
1

22 авг 2016, 02:17

Anonymous Перейти к последнему сообщению



Сейчас этот форум просматривают: нет зарегистрированных пользователей и гости: 2


Вы не можете начинать темы
Вы не можете отвечать на сообщения
Вы не можете редактировать свои сообщения
Вы не можете удалять свои сообщения
Вы не можете добавлять вложения

Перейти:  

!ВНИМАНИЕ!
 Ресурс не предоставляет электронные версии произведений, а занимается лишь коллекционированием и каталогизацией ссылок, присылаемых и публикуемых на форуме нашими читателями. Если вы являетесь правообладателем какого-либо представленного материала и не желаете чтобы ссылка на него находилась в нашем каталоге, свяжитесь с нами и мы незамедлительно удалим её. Файлы для обмена на трекере предоставлены пользователями сайта, и администрация не несёт ответственности за их содержание. Просьба не заливать файлы, защищенные авторскими правами, а также файлы нелегального содержания!