На всех торрентах на трекере установлена скидка на скачивание в размере 100 процентов(а).
 Возможность скачивания торрента НЕ зависит от ограничений при низком ратио, низком аплоаде, требуемом ратио или требуемом аплоаде.


Начать новую тему Ответить на тему
Статистика раздачи
Размер: 742.71 МБ | Добавлен: 28 апр 2014, 22:42 | Скачали: 0
Сидеров: 1  [0 байт/сек]    Личеров: 0  [0 байт/сек]
Пред. тема | След. тема 

Автор
Сообщение

СообщениеДобавлено: 28 апр 2014, 22:42 

Отчаянные авантюристы / High Adventure

Страна: Великобритания, Болгария, Канада
Жанр: Приключения, Боевик, Комедия
Год выпуска: 2001
Продолжительность: 01:30:41

Перевод: Профессиональный (двухголосый закадровый)
Cубтитры: нет
Режиссер: Марк Роупер / Mark Roper

В ролях: Томас Йен Гриффит, Аня Клинг, Гарри Пикок, Гётц Отто, Михаил Еленов, Кендра Торган, Барри Флэтмен, Петр Слабаков, Крис Ли, Иво Георгиев (Thomas Ian Griffith, Anja Kling, Harry Peacock, Götz Otto, Michail Elenov, Kendra Torgan, Barry Flatman, Petar Slabakov, Chris Lee, Ivo Georgiev)

Описание: Отважный Крис Куотермэйн, наследник славных традиций древнего рода искателей приключений, вместе со своим верным помощником Джонни Фордом отправляется на поиски таинственного клада Александра Македонского. С помощью надежной карты, которую им предоставилаих молодая, очаровательная и бесстрашная спутница Хоуп Грюнер, они надеются опередить банду головорезов под предводительством жестокой и коварной Кэрол Лоренцо, рассчитывающей неплохо заработать, добыв несметные сокровища великого завоевателя. Вскоре начнется невероятная гонка по странам и континентам, изобилующая забавными и неожиданными ситуациями, которая приведет отчаянных авантюристов в неприступные горы Памира, где кто-то из них, возможно, найдет свое счастье и станет богачом.

Сэмпл


Качество видео: DVDRip
Формат видео: AVI

Видео: 592x448 (1.32:1), 25 fps, XviD build 50 ~943 kbps avg, 0.14 bit/pixel
Аудио: 48 kHz, AC3 Dolby Digital, 2/0 (L,R) ch, ~192 kbps

MediaInfo
Общее
Полное имя : C:\Users\к\Desktop\фильмы\High Adventure.2001.XviD.DVDrip.avi
Формат : AVI
Формат/Информация : Audio Video Interleave
Размер файла : 743 Мбайт
Продолжительность : 1 ч. 30 м.
Общий поток : 1145 Кбит/сек
Программа кодирования : VirtualDubMod 1.5.10.3 | (build 2550/release)
Библиотека кодирования : VirtualDubMod build 2550/release

Видео
Идентификатор : 0
Формат : MPEG-4 Visual
Профиль формата : Advanced Simple@L5
Параметр BVOP формата : 2
Параметр QPel формата : Нет
Параметр GMC формата : Без точки перехода
Параметр матрицы формата : Default (H.263)
Идентификатор кодека : XVID
Идентификатор кодека/Подсказка : XviD
Продолжительность : 1 ч. 30 м.
Битрейт : 943 Кбит/сек
Ширина : 592 пикселя
Высота : 448 пикселей
Соотношение сторон : 4:3
Частота кадров : 25,000 кадров/сек
Цветовое пространство : YUV
Субдискретизация насыщенности : 4:2:0
Битовая глубина : 8 бит
Тип развёртки : Прогрессивная
Метод сжатия : С потерями
Бит/(Пиксели*Кадры) : 0.142
Размер потока : 612 Мбайт (82%)
Библиотека кодирования : XviD 1.2.1 (UTC 2008-12-04)

Аудио
Идентификатор : 1
Формат : AC-3
Формат/Информация : Audio Coding 3
Расширение режима : CM (complete main)
Параметр Endianness формата : Big
Идентификатор кодека : 2000
Продолжительность : 1 ч. 30 м.
Вид битрейта : Постоянный
Битрейт : 192 Кбит/сек
Каналы : 2 канала
Расположение каналов : Front: L R
Частота : 48,0 КГц
Битовая глубина : 16 бит
Метод сжатия : С потерями
Размер потока : 125 Мбайт (17%)
Выравнивание : Разделение по промежуткам
Продолжительность промежутка : 40 мс. (1,00 видеокадр)
Время предзагрузки промежутка : 500 мс.


Скриншоты

загрузка...
Правила, инструкции, FAQ!!!
Торрент  Добавлен [28 апр 2014, 22:42] Скачать торрент
Скачать торрент
[ Размер 15.1 КБ / Просмотров 9 ]

Статус  
 
Размер  742.71 МБ
Приватный: Нет (DHT включён)
.torrent скачан  0
Как залить торрент? | Как скачать Torrent? | Как смотреть и слушать онлайн?  


     Отправить личное сообщение
   
Страница 1 из 1
Показать сообщения за:  Поле сортировки  
Начать новую тему Ответить на тему

   Похожие торренты   Автор   Ответы   Просмотры   Последнее сообщение 
В этой теме нет новых непрочитанных сообщений. Скачать торрент Проверен Кунг-фу Панда 3Д / Kung Fu Panda 3D (Марк Осборн / Mark Osborne) [2008, мультфильм, боевик, комедия, приключения, семейный, BDrip, 1080p] Anaglyph Dubois / Анаглиф Дюбуа

в форуме HD-Video в 3D, Размер: 4.63 ГБ, Здоровье: 100%

Anonymous

0
9|3

70
0

02 ноя 2014, 09:55

Anonymous Перейти к последнему сообщению

В этой теме нет новых непрочитанных сообщений. Скачать торрент Проверен Кунг-фу Панда в 3Д / Kung Fu Panda 3D (Марк Осборн, Джон Стивенсон / Mark Osborne, John Stevenson) [2008, Мультфильм, боевик, комедия, приключения, BDremux, 1080p] BD3D

в форуме HD-Video в 3D, Размер: 27.27 ГБ, Здоровье: 100%

Anonymous

0
17|5

44
0

02 ноя 2014, 09:49

Anonymous Перейти к последнему сообщению

В этой теме нет новых непрочитанных сообщений. Скачать торрент Проверен Кунг-фу Панда в 3Д / Kung Fu Panda 3D (Марк Осборн, Джон Стивенсон / Mark Osborne, John Stevenson) [2008, Мультфильм, Боевик, Комедия, Приключения, Семейный, BDrip, 1080p] OverUnder / Вертикальная стереопара

в форуме HD-Video в 3D, Размер: 7.73 ГБ, Здоровье: 100%

Anonymous

0
18|6

120
1

02 ноя 2014, 09:56

Anonymous Перейти к последнему сообщению

В этой теме нет новых непрочитанных сообщений. Скачать торрент Скотт Пилигрим против всех / Scott Pilgrim vs. the World (Эдгар Райт / Edgar Wright) [2010, США, Канада, Великобритания, фэнтези, боевик, мелодрама, комедия, музыка, BDRip-AVC] DUB

в форуме Фантастика, Фэнтези, Размер: 2.18 ГБ, Здоровье: 100%

Anonymous

0
34|11

37
0

01 апр 2014, 09:32

Anonymous Перейти к последнему сообщению

В этой теме нет новых непрочитанных сообщений. Скачать торрент Стрелок / Контрагент / The Contractor / The Shooter (Йозеф Руснак / Josef Rusnak) [2007 г., Болгария, Великобритания, США, боевик, триллер, драма, BDRip]

в форуме Боевики, Размер: 744.68 МБ, Здоровье: 100%

Anonymous

0
7|2

133
0

01 апр 2014, 09:37

Anonymous Перейти к последнему сообщению



Сейчас этот форум просматривают: нет зарегистрированных пользователей и гости: 1


Вы не можете начинать темы
Вы не можете отвечать на сообщения
Вы не можете редактировать свои сообщения
Вы не можете удалять свои сообщения
Вы не можете добавлять вложения

Перейти:  

!ВНИМАНИЕ!
 Ресурс не предоставляет электронные версии произведений, а занимается лишь коллекционированием и каталогизацией ссылок, присылаемых и публикуемых на форуме нашими читателями. Если вы являетесь правообладателем какого-либо представленного материала и не желаете чтобы ссылка на него находилась в нашем каталоге, свяжитесь с нами и мы незамедлительно удалим её. Файлы для обмена на трекере предоставлены пользователями сайта, и администрация не несёт ответственности за их содержание. Просьба не заливать файлы, защищенные авторскими правами, а также файлы нелегального содержания!