На всех торрентах на трекере установлена скидка на скачивание в размере 100 процентов(а).
 Возможность скачивания торрента НЕ зависит от ограничений при низком ратио, низком аплоаде, требуемом ратио или требуемом аплоаде.


Начать новую тему Ответить на тему
Статистика раздачи
Размер: 744.57 МБ | Добавлен: 02 апр 2014, 12:07 | Скачали: 0
Сидеров: 43  [0 байт/сек]    Личеров: 4  [0 байт/сек]
Пред. тема | След. тема 

Автор
Сообщение

СообщениеДобавлено: 02 апр 2014, 12:07 

Храбрый портняжка / Das tapfere Schneiderlein



Страна: Германия
Жанр: приключения, семейный
Год выпуска: 2008
Продолжительность: 00:58:41




Перевод: Профессиональный (многоголосый закадровый) телеканал Карусель
Cубтитры: нет




Режиссер: Кристиан Фид / Сhristian Theede
В ролях: Костя Ульманн, Каролине Шух, Аксель Милберг, Дирк Мартенс, Ханнелор Хогер, Марлин Лосе, Удо Джолли, Йонас Хартманн, Клеменс Дейндл, Хейк Фалькенберг




Описание: История о молодом портном, который стал храбрым и смелым, когда убил семь мух одним махом. Он начал путешествовать по всему миру с поясом, на котором было написано «убил семерых одним махом», и помогал людям. Храбрый и хитрый портняжка смог провести короля вокруг пальца, справился со злыми разбойниками и великанами и получил в жены прекрасную принцессу…
P.S. По мотивам сказки братьев Гримм.














Качество видео: DVDRip
Формат видео: AVI
Видео: 672x368 (1.83:1), 25 fps, XviD build 50 ~1571 kbps avg, 0.25 bit/pixel
Аудио: 48 kHz, AC3 Dolby Digital, 2/0 (L,R) ch, ~192.00 kbps avg
MediaInfo
General
Complete name : D:\Релизы\(2008) Храбрый портняжка.avi
Format : AVI
Format/Info : Audio Video Interleave
File size : 745 MiB
Duration : 58mn 41s
Overall bit rate : 1 774 Kbps
Writing application : VirtualDubMod 1.5.10.2 (build 2540/release)
Writing library : VirtualDubMod build 2540/release

Video
ID : 0
Format : MPEG-4 Visual
Format profile : Advanced Simple@L5
Format settings, BVOP : 1
Format settings, QPel : No
Format settings, GMC : No warppoints
Format settings, Matrix : Custom
Codec ID : XVID
Codec ID/Hint : XviD
Duration : 58mn 41s
Bit rate : 1 572 Kbps
Width : 672 pixels
Height : 368 pixels
Display aspect ratio : 16:9
Frame rate : 25.000 fps
Color space : YUV
Chroma subsampling : 4:2:0
Bit depth : 8 bits
Scan type : Progressive
Compression mode : Lossy
Bits/(Pixel*Frame) : 0.254
Stream size : 660 MiB (89%)
Writing library : XviD 1.2.1 (UTC 2008-12-04)

Audio
ID : 1
Format : AC-3
Format/Info : Audio Coding 3
Mode extension : CM (complete main)
Codec ID : 2000
Duration : 58mn 40s
Bit rate mode : Constant
Bit rate : 192 Kbps
Channel(s) : 2 channels
Channel positions : Front: L R
Sampling rate : 48.0 KHz
Bit depth : 16 bits
Compression mode : Lossy
Delay relative to video : 26ms
Stream size : 80.6 MiB (11%)
Alignment : Split accross interleaves
Interleave, duration : 40 ms (1.00 video frame)
Interleave, preload duration : 500 ms


Скриншоты
загрузка...
Правила, инструкции, FAQ!!!
Торрент  Добавлен [02 апр 2014, 12:07] Скачать торрент
Скачать торрент
[ Размер 15.11 КБ / Просмотров 9 ]

Статус  
 
Размер  744.57 МБ
Приватный: Нет (DHT включён)
.torrent скачан  0
Как залить торрент? | Как скачать Torrent? | Как смотреть и слушать онлайн?  


     Отправить личное сообщение
   
Страница 1 из 1
Показать сообщения за:  Поле сортировки  
Начать новую тему Ответить на тему

   Похожие торренты   Автор   Ответы   Просмотры   Последнее сообщение 
В этой теме нет новых непрочитанных сообщений. Скачать торрент Кот в сапогах / Der gestiefelte Kater (Кристиан Тееде / Christian Theede) [2009, Германия, фантазия, SATRip] Dub

в форуме Фантастика, Фэнтези, Размер: 537.84 МБ, Здоровье: 100%

Anonymous

0
50|4

117
4

12 фев 2014, 11:48

Anonymous Перейти к последнему сообщению

В этой теме нет новых непрочитанных сообщений. Скачать торрент Белые лилии / Weisse Lilien (Кристиан Фрош / Christian Frosch) [2007, Австрия, Германия, Люксембург, Венгрия, Триллер, DVDRip] VO den904

в форуме Триллеры, Размер: 836.03 МБ, Здоровье: 0%

Anonymous

0
0|0

42
0

12 фев 2014, 11:47

Anonymous Перейти к последнему сообщению

В этой теме нет новых непрочитанных сообщений. Скачать торрент Проверен Махни крылом в 3Д / Gus - Petit oiseau, grand voyage [3D/2D] 3D (Кристиан Де Вита / Christian De Vita) [2014, мультфильм, комедия, приключения, семейный, Blu-Ray Disc, (Custom) 1080p] BD3D

в форуме 3D Мультфильмы, Размер: 30.09 ГБ, Здоровье: 0%

Anonymous

0
0|0

6
0

07 сен 2016, 18:08

Anonymous Перейти к последнему сообщению

В этой теме нет новых непрочитанных сообщений. Скачать торрент Спайдервик: Хроники / The Spiderwick Chronicles (Марк С. Уотерс) [2008 г., Фэнтези, драма, приключения, семейный, DVDRip]

в форуме Детское, Семейное кино, Размер: 664.39 МБ, Здоровье: 0%

Anonymous

0
0|0

46
0

13 фев 2014, 11:40

Anonymous Перейти к последнему сообщению

В этой теме нет новых непрочитанных сообщений. Скачать торрент Там, где живут чудовища / Where the Wild Things Are (Спайк Джонз / Spike Jonze) [2009, США, Германия, фэнтези, драма, приключения, семейный, HDRip] DUB

в форуме Фантастика, Фэнтези, Размер: 751.6 МБ, Здоровье: 100%

Anonymous

0
47|16

53
1

16 фев 2014, 13:06

Anonymous Перейти к последнему сообщению



Сейчас этот форум просматривают: нет зарегистрированных пользователей и гости: 1


Вы не можете начинать темы
Вы не можете отвечать на сообщения
Вы не можете редактировать свои сообщения
Вы не можете удалять свои сообщения
Вы не можете добавлять вложения

Перейти:  

!ВНИМАНИЕ!
 Ресурс не предоставляет электронные версии произведений, а занимается лишь коллекционированием и каталогизацией ссылок, присылаемых и публикуемых на форуме нашими читателями. Если вы являетесь правообладателем какого-либо представленного материала и не желаете чтобы ссылка на него находилась в нашем каталоге, свяжитесь с нами и мы незамедлительно удалим её. Файлы для обмена на трекере предоставлены пользователями сайта, и администрация не несёт ответственности за их содержание. Просьба не заливать файлы, защищенные авторскими правами, а также файлы нелегального содержания!