На всех торрентах на трекере установлена скидка на скачивание в размере 100 процентов(а).
 Возможность скачивания торрента НЕ зависит от ограничений при низком ратио, низком аплоаде, требуемом ратио или требуемом аплоаде.


Начать новую тему Ответить на тему
Статистика раздачи
Размер: 1.36 ГБ | Добавлен: 07 фев 2014, 07:32 | Скачали: 8
Сидеров: 8  [0 байт/сек]    Личеров: 1  [0 байт/сек]
Пред. тема | След. тема 

Автор
Сообщение

СообщениеДобавлено: 07 фев 2014, 07:32 

Название: Ржавая сталь
Оригинальное название: Rusty Steel
Год выхода: 2013
Жанр: Приключения
Режиссер: Йон Йонеску

В ролях: Йоханн Урб, Ирина Буческу, Пол Кэмпбелл, Дин Стóкуэлл

О фильме:
Братья-американцы приезжают в Румынию, чтобы вступить в права наследства, оставленного им дядей. Каково же их рахочарование, когда все наследство заключается в старой ржавой посудине под названием «Ржавая сталь». Братья даже подумывают вернуться в США, но дядины дневники толкают их к поискам.

Страна: США
Студия: Vision
Продолжительность: 01:29:27
Перевод: Профессиональный двухголосый (НТВ+)


Кодек: XviD
Качество: SATRip
Видео: 1978 Кбит/с, 720x384, 25.000 кадр/с
Звук: Русский (АС3, 2 ch, 192 Кбит/с)

Семпл


Общее
Полное имя : Rzhavaja.stal.2013.SATRip.MediaClub.avi
Формат : AVI
Формат/Информация : Audio Video Interleave
Размер файла : 1,36 Гбайт
Продолжительность : 1 ч. 29 м.
Общий поток : 2180 Кбит/сек
Название фильма : MediaClub
Программа кодирования : VirtualDubMod 1.5.10.2 (build 2540/release)
Библиотека кодирования : VirtualDubMod build 2540/release

Видео
Идентификатор : 0
Формат : MPEG-4 Visual
Профиль формата : Advanced Simple@L5
Параметр BVOP формата : 2
Параметр QPel формата : Нет
Параметр GMC формата : Без точки перехода
Параметр матрицы формата : Default (MPEG)
Идентификатор кодека : XVID
Идентификатор кодека/Подсказка : XviD
Продолжительность : 1 ч. 29 м.
Битрейт : 1978 Кбит/сек
Ширина : 720 пикселей
Высота : 384 пикселя
Соотношение сторон : 1,85:1
Частота кадров : 25,000 кадров/сек
Цветовое пространство : YUV
Субдискретизация насыщенности : 4:2:0
Битовая глубина : 8 бит
Тип развёртки : Прогрессивная
Метод сжатия : С потерями
Бит/(Пиксели*Кадры) : 0.286
Размер потока : 1,24 Гбайт (91%)
Библиотека кодирования : XviD 65

Аудио
Идентификатор : 1
Формат : AC-3
Формат/Информация : Audio Coding 3
Расширение режима : CM (complete main)
Параметр Endianness формата : Big
Идентификатор кодека : 2000
Продолжительность : 1 ч. 29 м.
Вид битрейта : Постоянный
Битрейт : 192 Кбит/сек
Каналы : 2 канала
Расположение каналов : Front: L R
Частота : 48,0 КГц
Битовая глубина : 16 бит
Метод сжатия : С потерями
Размер потока : 123 Мбайт (9%)
Выравнивание : Разделение по промежуткам
Продолжительность промежутка : 40 мс. (1,00 видеокадр)
Время предзагрузки промежутка : 500 мс.


Релиз от:
За предоставленный постер огромное спасибо Инне - cookies и команде: Media-Art-Club
загрузка...
Правила, инструкции, FAQ!!!
Торрент  Добавлен [07 фев 2014, 07:32] Скачать торрент
Скачать торрент
[ Размер 14.17 КБ / Просмотров 9 ]

Статус  
 
Размер  1.36 ГБ
Приватный: Нет (DHT включён)
.torrent скачан  8
Как залить торрент? | Как скачать Torrent? | Как смотреть и слушать онлайн?  


     Отправить личное сообщение
   
Страница 1 из 1
Показать сообщения за:  Поле сортировки  
Начать новую тему Ответить на тему

   Похожие торренты   Автор   Ответы   Просмотры   Последнее сообщение 
В этой теме нет новых непрочитанных сообщений. Скачать торрент Проверен [MP4 320x240]Живая сталь / Real Steel (2011) DVDRip

в форуме Видео для смартфонов и КПК, Размер: 382.81 МБ, Здоровье: 3%

Anonymous

0
2|63

317
0

25 окт 2014, 23:24

Anonymous Перейти к последнему сообщению

В этой теме нет новых непрочитанных сообщений. Скачать торрент Проверен (Heavy Metal/Shred) [CD] Rusty Cooley - Rusty Cooley - 2003, WavPack (image+.cue), lossless

в форуме Heavy, Power, Progressive (Metal), Размер: 486.83 МБ, Здоровье: 0%

Anonymous

0
0|0

4
0

11 окт 2016, 21:14

Anonymous Перейти к последнему сообщению

В этой теме нет новых непрочитанных сообщений. Скачать торрент Проверен (Southern Rock) Rusty Wier - Rusty Wier - 1976, MP3, 256 kbps

в форуме Classic Rock & Hard Rock, Размер: 63.21 МБ, Здоровье: 0%

Anonymous

0
0|0

0
0

13 ноя 2016, 11:30

Anonymous Перейти к последнему сообщению

В этой теме нет новых непрочитанных сообщений. Скачать торрент Проверен (Heavy Metal) Crying Steel - Time Stands Steel - 2013, MP3, 320 kbps

в форуме Heavy, Power, Progressive (Metal), Размер: 123.25 МБ, Здоровье: 0%

Anonymous

0
0|0

2
0

09 окт 2016, 12:54

Anonymous Перейти к последнему сообщению

В этой теме нет новых непрочитанных сообщений. Скачать торрент Проверен (Heavy/Power Metal) Crying Steel - Time Stands Steel - 2013, FLAC (image+.cue), lossless

в форуме Heavy, Power, Progressive (Metal), Размер: 422.47 МБ, Здоровье: 0%

Anonymous

0
0|0

3
0

10 окт 2016, 22:52

Anonymous Перейти к последнему сообщению



Сейчас этот форум просматривают: нет зарегистрированных пользователей и гости: 1


Вы не можете начинать темы
Вы не можете отвечать на сообщения
Вы не можете редактировать свои сообщения
Вы не можете удалять свои сообщения
Вы не можете добавлять вложения

Перейти:  

!ВНИМАНИЕ!
 Ресурс не предоставляет электронные версии произведений, а занимается лишь коллекционированием и каталогизацией ссылок, присылаемых и публикуемых на форуме нашими читателями. Если вы являетесь правообладателем какого-либо представленного материала и не желаете чтобы ссылка на него находилась в нашем каталоге, свяжитесь с нами и мы незамедлительно удалим её. Файлы для обмена на трекере предоставлены пользователями сайта, и администрация не несёт ответственности за их содержание. Просьба не заливать файлы, защищенные авторскими правами, а также файлы нелегального содержания!