На всех торрентах на трекере установлена скидка на скачивание в размере 100 процентов(а).
 Возможность скачивания торрента НЕ зависит от ограничений при низком ратио, низком аплоаде, требуемом ратио или требуемом аплоаде.


Начать новую тему Ответить на тему
Статистика раздачи
Размер: 1.45 ГБ | Добавлен: 24 ноя 2013, 00:36 | Скачали: 0
Сидеров: 0  [0 байт/сек]    Личеров: 0  [0 байт/сек]
Пред. тема | След. тема 

Автор
Сообщение

СообщениеДобавлено: 24 ноя 2013, 00:36 

Название: Холодные глаза / Слежка
Оригинальное название: Cold Eyes
Год выхода: 2013
Жанр: триллер
Режиссер: Джо Уи Сок, Бён-со Ким

В ролях: Хан Хен Чжу, Соль Гён Гу, Чон У Сон, Ли Чун Хо

О фильме:
Команда специалистов по наблюдению, входящая в состав специального подразделения полиции, получает задание, с которым никто кроме них не может справиться. Им предстоит выследить виновных в совершении ряда дерзких банковских ограблений. Используя самую современную технику и незаурядные аналитические данные, группа выходит на след преступников. Но оказывается, что здесь замешана влиятельная организация, и обезвредить её будет совсем не просто...



Страна: Корея Южная
Продолжительность: 01:59:01
Перевод: Любительское (двухголосое) [DeadSno & den904]


Кодек: XviD
Качество: HDRip (Исходник BDRip720p)
Видео: 688x288 (2.39:1), 24.000 fps, XviD build 50 ~1547 kbps avg, 0.33 bit/pixel
Звук: 48 kHz, AC3 Dolby Digital, 2/0 (L,R) ch, ~192.00 kbps avg
Субтитры: нет

Семпл

Общее
Полное имя : K:Холодные глаза (Слежка). 2013. HDRip (AleksSin).avi
Формат : AVI
Формат/Информация : Audio Video Interleave
Размер файла : 1,45 Гбайт
Продолжительность : 1 ч. 59 м.
Общий поток : 1749 Кбит/сек
Программа кодирования : VirtualDubMod 1.5.10.3 | http://www.virtualdub-fr.org || (build 2550/release)
Библиотека кодирования : VirtualDubMod build 2550/release

Видео
Идентификатор : 0
Формат : MPEG-4 Visual
Профиль формата : Advanced Simple@L5
Параметр BVOP формата : 2
Параметр QPel формата : Нет
Параметр GMC формата : Без точки перехода
Параметр матрицы формата : Выборочная
Идентификатор кодека : XVID
Идентификатор кодека/Подсказка : XviD
Продолжительность : 1 ч. 59 м.
Битрейт : 1547 Кбит/сек
Ширина : 688 пикс.
Высота : 288 пикс.
Соотношение сторон : 2,40:1
Частота кадров : 24,000 кадр/сек
Цветовое пространство : YUV
Подвыборка цветности : 4:2:0
Битовая глубина : 8 бит
Тип развёртки : Прогрессивная
Метод сжатия : С потерями
Бит/(Пиксели*Кадры) : 0.325
Размер потока : 1,29 Гбайт (88%)
Библиотека кодирования : XviD 1.2.1 (UTC 2008-12-04)

Аудио
Идентификатор : 1
Формат : AC-3
Формат/Информация : Audio Coding 3
Расширение режима : CM (complete main)
Идентификатор кодека : 2000
Продолжительность : 1 ч. 59 м.
Вид битрейта : Постоянный
Битрейт : 192 Кбит/сек
Каналы : 2 канала
Расположение каналов : Front: L R
Частота : 48,0 КГц
Битовая глубина : 16 бит
Метод сжатия : С потерями
Размер потока : 163 Мбайт (11%)
Выравнивание : Разделение по промежуткам
Продолжительность промежутка : 42 мс. (1,00 видеокадр)
Время предзагрузки промежутка : 500 ms

загрузка...
Правила, инструкции, FAQ!!!
Торрент  Добавлен [24 ноя 2013, 00:36] Скачать торрент
Скачать торрент
[ Размер 15.13 КБ / Просмотров 9 ]

Статус  
 
Размер  1.45 ГБ
Приватный: Нет (DHT включён)
.torrent скачан  0
Как залить торрент? | Как скачать Torrent? | Как смотреть и слушать онлайн?  


     Отправить личное сообщение
   
Страница 1 из 1
Показать сообщения за:  Поле сортировки  
Начать новую тему Ответить на тему

   Похожие торренты   Автор   Ответы   Просмотры   Последнее сообщение 
В этой теме нет новых непрочитанных сообщений. Скачать торрент Проверен Большие глаза / Big Eyes (2014) HDRip | iTunes

в форуме Драмы, Мелодрамы, Размер: 2.05 ГБ, Здоровье: 94%

Гость

0
82|87

129
119

28 мар 2015, 17:44

Гость Перейти к последнему сообщению

В этой теме нет новых непрочитанных сообщений. Скачать торрент Проверен Большие глаза / Big Eyes (2014) WEB-DLRip | Чистый звук

в форуме Драмы, Мелодрамы, Размер: 1.46 ГБ, Здоровье: 29%

Гость

0
80|269

97
72

27 янв 2015, 22:53

Гость Перейти к последнему сообщению

В этой теме нет новых непрочитанных сообщений. Скачать торрент Проверен Большие глаза / Big Eyes (2014) BDRip [576p] iPad

в форуме Фильмы для iPod, iPhone, iPad, Размер: 2.04 ГБ, Здоровье: 100%

Anonymous

0
2|1

89
0

13 сен 2015, 00:42

Anonymous Перейти к последнему сообщению

В этой теме нет новых непрочитанных сообщений. Скачать торрент Проверен Большие глаза / Big Eyes (2014) BDRip 1080p | iTunes

в форуме 720p | 1080p, Размер: 8.78 ГБ, Здоровье: 100%

Гость

0
106|54

83
74

08 апр 2015, 23:01

Гость Перейти к последнему сообщению

В этой теме нет новых непрочитанных сообщений. Скачать торрент Проверен Глаза звезды / Starry Eyes (2014) BDRip [576p] iPad

в форуме Фильмы для iPod, iPhone, iPad, Размер: 1.99 ГБ, Здоровье: 100%

Anonymous

0
3|1

17
0

13 сен 2015, 00:56

Anonymous Перейти к последнему сообщению



Сейчас этот форум просматривают: нет зарегистрированных пользователей и гости: 1


Вы не можете начинать темы
Вы не можете отвечать на сообщения
Вы не можете редактировать свои сообщения
Вы не можете удалять свои сообщения
Вы не можете добавлять вложения

Перейти:  

!ВНИМАНИЕ!
 Ресурс не предоставляет электронные версии произведений, а занимается лишь коллекционированием и каталогизацией ссылок, присылаемых и публикуемых на форуме нашими читателями. Если вы являетесь правообладателем какого-либо представленного материала и не желаете чтобы ссылка на него находилась в нашем каталоге, свяжитесь с нами и мы незамедлительно удалим её. Файлы для обмена на трекере предоставлены пользователями сайта, и администрация не несёт ответственности за их содержание. Просьба не заливать файлы, защищенные авторскими правами, а также файлы нелегального содержания!