На всех торрентах на трекере установлена скидка на скачивание в размере 100 процентов(а).
 Возможность скачивания торрента НЕ зависит от ограничений при низком ратио, низком аплоаде, требуемом ратио или требуемом аплоаде.


Начать новую тему Ответить на тему
Статистика раздачи
Размер: 1.46 ГБ | Добавлен: 03 окт 2013, 20:08 | Скачали: 15
Сидеров: 1  [0 байт/сек]    Личеров: 0  [0 байт/сек]
Пред. тема | След. тема 

Автор
Сообщение

СообщениеДобавлено: 03 окт 2013, 20:08 

Тяжелый случай / Hard Luck

Страна: США
Жанр: Триллер, драма, криминал
Год выпуска: 2006
Продолжительность: 01:41:19
Перевод: Профессиональный (многоголосый закадровый)
Cубтитры: нет

Режиссер: Марио Ван Пиблз / Mario Van Peebles

В ролях: Уэсли Снайпс, Джеки Киньонес, Сибилл Шепард, Джеймс Хироюки Лиао, Обри Доллар, Кевин Томс, Адриан Вашингтон, Ной Флайсс, Билл Коббс, Кевин Чэпмен

Описание: Торговец наркотиками решает завязать со своим преступным прошлым и зажить порядочной жизнью, став честным и всеми уважаемым гражданином. Но все его благие намерения идут прахом, когда он соглашается прийти на день рождения своего приятеля-гангстера. Вновь оказавшись в самом центре разборок между уголовными преступниками и продажными полицейскими, он бежит с вечеринки, прихватив с собой красавицу-танцовщицу и чемоданчик, доверху набитый долларами. Спасаясь от преследования, он мчится навстречу своей судьбе, уготовившей ему невероятные приключения…



Качество: WEB-DLRip [исх. WEB-DL 720p]
Формат видео: AVI
Видео кодек: XviD
Аудио кодек: AC3
Видео: 720x304 (2.37:1), 23.976 fps, XviD build 73 ~1672 kbps avg, 0.32 bit/pixel
Аудио: 48 kHz, AC3 Dolby Digital, 3/2 (L,C,R,l,r) + LFE ch, ~384 kbps

Раздача от:


D:Мои рипыHard.Luck.2006.HDRip.dexter_lex.avi
General
Complete name : D:Мои рипыHard.Luck.2006.HDRip.dexter_lex.avi
Format : AVI
Format/Info : Audio Video Interleave
File size : 1.46 GiB
Duration : 1h 41mn
Overall bit rate : 2 066 Kbps
Writing application : VirtualDubMod 1.5.10.3 | http://www.virtualdub-fr.org || (build 2550/release)
Writing library : VirtualDubMod build 2550/release
Video #0
ID : 0
Format : MPEG-4 Visual
Format profile : Advanced Simple@L5
Format settings, BVOP : 1
Format settings, QPel : No
Format settings, GMC : No warppoints
Format settings, Matrix : Custom
Codec ID : XVID
Codec ID/Hint : XviD
Duration : 1h 41mn
Bit rate : 1 673 Kbps
Width : 720 pixels
Height : 304 pixels
Display aspect ratio : 2.35:1
Frame rate : 23.976 fps
Color space : YUV
Chroma subsampling : 4:2:0
Bit depth : 8 bits
Scan type : Progressive
Compression mode : Lossy
Bits/(Pixel*Frame) : 0.319
Stream size : 1.18 GiB (81%)
Writing library : XviD 73
Audio #1
ID : 1
Format : AC-3
Format/Info : Audio Coding 3
Mode extension : CM (complete main)
Codec ID : 2000
Duration : 1h 41mn
Bit rate mode : Constant
Bit rate : 384 Kbps
Channel(s) : 6 channels
Channel positions : Front: L C R, Side: L R, LFE
Sampling rate : 48.0 KHz
Bit depth : 16 bits
Compression mode : Lossy
Stream size : 278 MiB (19%)
Alignment : Split accross interleaves
Interleave, duration : 42 ms (1.00 video frame)
Interleave, preload duration : 500 ms
загрузка...
Правила, инструкции, FAQ!!!
Торрент  Добавлен [03 окт 2013, 20:08] Скачать торрент
Скачать торрент
[ Размер 15.26 КБ / Просмотров 14 ]

Статус  
 
Размер  1.46 ГБ
Приватный: Нет (DHT включён)
.torrent скачан  15
Как залить торрент? | Как скачать Torrent? | Как смотреть и слушать онлайн?  


     Отправить личное сообщение
   
Страница 1 из 1
Показать сообщения за:  Поле сортировки  
Начать новую тему Ответить на тему

   Похожие торренты   Автор   Ответы   Просмотры   Последнее сообщение 
В этой теме нет новых непрочитанных сообщений. Скачать торрент Проверен (Hard Rock) Tuff Luck - Tuff Luck - 1988, MP3 (tracks), 192 kbps

в форуме Classic Rock & Hard Rock, Размер: 56.11 МБ, Здоровье: 0%

Anonymous

0
0|0

0
0

13 ноя 2016, 16:34

Anonymous Перейти к последнему сообщению

В этой теме нет новых непрочитанных сообщений. Скачать торрент Проверен Поцелуй на удачу / Just My Luck (2006) BDRip

в форуме Комедии, Размер: 1.45 ГБ, Здоровье: 100%

Гость

0
107|5

61
1576

05 фев 2015, 21:06

Гость Перейти к последнему сообщению

В этой теме нет новых непрочитанных сообщений. Скачать торрент Проверен [iPod] Поцелуй на удачу / Just My Luck (Дональд Петри / Donald Petrie) [2006 г.,США, Комедия, Мелодрама, BDRip] Dub

в форуме Фильмы для iPod, iPhone, iPad, Размер: 456.55 МБ, Здоровье: 100%

Anonymous

0
3|1

21
0

18 май 2015, 10:47

Anonymous Перейти к последнему сообщению

В этой теме нет новых непрочитанных сообщений. Скачать торрент Проверен (Hard Rock) Seductive Luck - Cant Be Tamed - 2010, MP3, 320 kbps

в форуме Classic Rock & Hard Rock, Размер: 176.52 МБ, Здоровье: 0%

Anonymous

0
0|0

0
0

13 ноя 2016, 15:03

Anonymous Перейти к последнему сообщению

В этой теме нет новых непрочитанных сообщений. Скачать торрент Captain Jacobs - Good Luck ... You Need It! (2013) [MP3|320 кб/с]<Hard Rock>

в форуме Рок, Панк, Метал, Альтернатива, Размер: 78.75 МБ, Здоровье: 0%

Anonymous

0
0|0

15
0

25 фев 2014, 14:27

Anonymous Перейти к последнему сообщению



Сейчас этот форум просматривают: нет зарегистрированных пользователей и гости: 1


Вы не можете начинать темы
Вы не можете отвечать на сообщения
Вы не можете редактировать свои сообщения
Вы не можете удалять свои сообщения
Вы не можете добавлять вложения

Перейти:  

!ВНИМАНИЕ!
 Ресурс не предоставляет электронные версии произведений, а занимается лишь коллекционированием и каталогизацией ссылок, присылаемых и публикуемых на форуме нашими читателями. Если вы являетесь правообладателем какого-либо представленного материала и не желаете чтобы ссылка на него находилась в нашем каталоге, свяжитесь с нами и мы незамедлительно удалим её. Файлы для обмена на трекере предоставлены пользователями сайта, и администрация не несёт ответственности за их содержание. Просьба не заливать файлы, защищенные авторскими правами, а также файлы нелегального содержания!