На всех торрентах на трекере установлена скидка на скачивание в размере 100 процентов(а).
 Возможность скачивания торрента НЕ зависит от ограничений при низком ратио, низком аплоаде, требуемом ратио или требуемом аплоаде.


Начать новую тему Ответить на тему
Статистика раздачи
Размер: 1.45 ГБ | Добавлен: 26 янв 2015, 00:24 | Скачали: 148
Сидеров: 68  [0 байт/сек]    Личеров: 56  [0 байт/сек]
Пред. тема | След. тема 

Автор
Сообщение

СообщениеДобавлено: 26 янв 2015, 00:24 

Название: Инстинкт игрока
Оригинальное название: Spieltrieb
Год выпуска: 2013
Жанр: триллер, драма
Режиссер: Грегор Шнитцлер
В ролях: Мишель Бартел, Янник Шуманн, Максимилиан Брюкнер, Рихи Мюллер, Ульрике Фолькертс, София фон Кессель, Гельмут Бергер, Изольда Барт

О фильме: Ада умна, она скучает в школе. Героиня увлечена новеньким по имени Алев: он остр на язык и дерзок. Оба вскоре понимают, что близки друг другу по духу — когда Алев предлагает опасную игру, Ада соглашается, несмотря на то, что всё закручено на власти и манипуляции, — ей хочется внушать юноше уважение. Вскоре ситуация выходит из-под контроля и девушка не знает кто на самом деле противник, а на кого можно положиться…



Выпущено: Германия
Продолжительность: 01:40:23
Озвучивание: Любительское (двухголосое) [DeadSno & den904], перевел [kon2011]


Формат: AVI (XviD)
Качество: HDRip [Рип с BDRip 720p]
Видео: 1617 kb/s, 720x304
Аудио: AC3, 448 kb/s (6 ch)







Format : AVI
Format/Info : Audio Video Interleave
File size : 1.45 GiB
Duration : 1h 40mn
Overall bit rate : 2 075 Kbps
Writing application : VirtualDubMod 1.5.10.3 | http://www.virtualdub-fr.org || (build 2550/release)
Writing library : VirtualDubMod build 2550/release

Video
ID : 0
Format : MPEG-4 Visual
Format profile : Advanced Simple@L5
Format settings, BVOP : 1
Format settings, QPel : No
Format settings, GMC : No warppoints
Format settings, Matrix : Custom
Codec ID : XVID
Codec ID/Hint : XviD
Duration : 1h 40mn
Bit rate : 1 617 Kbps
Width : 720 pixels
Height : 304 pixels
Display aspect ratio : 2.35:1
Frame rate : 24.000 fps
Color space : YUV
Chroma subsampling : 4:2:0
Bit depth : 8 bits
Scan type : Progressive
Compression mode : Lossy
Bits/(Pixel*Frame) : 0.308
Stream size : 1.13 GiB (78%)
Writing library : XviD 73

Audio
ID : 1
Format : AC-3
Format/Info : Audio Coding 3
Mode extension : CM (complete main)
Format settings, Endianness : Big
Codec ID : 2000
Duration : 1h 40mn
Bit rate mode : Constant
Bit rate : 448 Kbps
Channel(s) : 6 channels
Channel positions : Front: L C R, Side: L R, LFE
Sampling rate : 48.0 KHz
Bit depth : 16 bits
Compression mode : Lossy
Stream size : 322 MiB (22%)
Alignment : Split accross interleaves
Interleave, duration : 42 ms (1.00 video frame)
Interleave, preload duration : 500 ms
загрузка...
Правила, инструкции, FAQ!!!
Торрент  Добавлен [26 янв 2015, 00:24] Скачать торрент
Скачать торрент
[ Размер 15.19 КБ / Просмотров 12 ]

Статус
Проверен 
 
Размер  1.45 ГБ
Приватный: Нет (DHT включён)
.torrent скачан  148
Как залить торрент? | Как скачать Torrent? | Как смотреть и слушать онлайн?  


     Отправить личное сообщение
   
Страница 1 из 1
Показать сообщения за:  Поле сортировки  
Начать новую тему Ответить на тему

   Похожие торренты   Автор   Ответы   Просмотры   Последнее сообщение 
В этой теме нет новых непрочитанных сообщений. Скачать торрент Основной инстинкт 2: Жажда риска / Basic Instinct 2 (Майкл Кэйтон-Джоунс / Michael Caton-Jones) [2006 г., Триллер, HDRip] Dub

в форуме Триллеры, Размер: 1.46 ГБ, Здоровье: 100%

Anonymous

0
10|3

31
0

16 фев 2014, 13:08

Anonymous Перейти к последнему сообщению

В этой теме нет новых непрочитанных сообщений. Скачать торрент Проверен Ежи Эдигей | Внезапная смерть игрока [1987] [RTF, FB2]

в форуме Детективы и Боевики, Размер: 16.29 МБ, Здоровье: 100%

Anonymous

0
1|1

28
0

20 сен 2014, 21:27

Anonymous Перейти к последнему сообщению

В этой теме нет новых непрочитанных сообщений. Скачать торрент Проверен Эдигей Ежи - Внезапная смерть игрока [Андрианов А., 2010, 96 kbps]

в форуме Детектив и Боевики, Размер: 1.22 ГБ, Здоровье: 0%

Anonymous

0
0|0

0
0

20 ноя 2016, 02:39

Anonymous Перейти к последнему сообщению

В этой теме нет новых непрочитанных сообщений. Скачать торрент Проверен Устинова Татьяна - Запасной инстинкт [Ненарокомова Татьяна, 2013 г., 96 kbps, MP3]

в форуме Детектив и Боевики, Размер: 442.3 МБ, Здоровье: 0%

Anonymous

0
0|0

0
0

20 ноя 2016, 17:57

Anonymous Перейти к последнему сообщению

В этой теме нет новых непрочитанных сообщений. Скачать торрент Проверен Джозеф Файндер | Инстинкт хищника [2008] [RTF, FB2]

в форуме Детективы и Боевики, Размер: 1.77 МБ, Здоровье: 100%

Anonymous

0
1|1

31
0

20 сен 2014, 21:12

Anonymous Перейти к последнему сообщению



Сейчас этот форум просматривают: нет зарегистрированных пользователей и гости: 2


Вы не можете начинать темы
Вы не можете отвечать на сообщения
Вы не можете редактировать свои сообщения
Вы не можете удалять свои сообщения
Вы не можете добавлять вложения

Перейти:  

!ВНИМАНИЕ!
 Ресурс не предоставляет электронные версии произведений, а занимается лишь коллекционированием и каталогизацией ссылок, присылаемых и публикуемых на форуме нашими читателями. Если вы являетесь правообладателем какого-либо представленного материала и не желаете чтобы ссылка на него находилась в нашем каталоге, свяжитесь с нами и мы незамедлительно удалим её. Файлы для обмена на трекере предоставлены пользователями сайта, и администрация не несёт ответственности за их содержание. Просьба не заливать файлы, защищенные авторскими правами, а также файлы нелегального содержания!