На всех торрентах на трекере установлена скидка на скачивание в размере 100 процентов(а).
 Возможность скачивания торрента НЕ зависит от ограничений при низком ратио, низком аплоаде, требуемом ратио или требуемом аплоаде.


Начать новую тему Ответить на тему
Статистика раздачи
Размер: 2.07 ГБ | Добавлен: 09 янв 2015, 23:48 | Скачали: 0
Сидеров: 0  [0 байт/сек]    Личеров: 0  [0 байт/сек]
Пред. тема | След. тема 

Автор
Сообщение

СообщениеДобавлено: 09 янв 2015, 23:48 

Производство: Гонконг, Китай / Film Development Fund of Hong Kong, Golden Scene, Sun Entertainment Culture
Жанр: Триллер, Комедия, Детектив

Режиссер: Фрут Чан
Продюсер: Эми Чин, Фрут Чан, Алекс Тонг
Актеры: Ю-Нам Вонг, Дженис Ман, Саймон Ям, Кара Хуи, Тинг Яу Цуй, Сует Лам, Гу-Би ДжейСи, Шин-Чюн Ли, Сэм Ли, Черри Нган

Описание фильма:
Восемнадцать... нет, 16 пассажиров, севших в маршрутное такси (и водитель, конечно), отправляются из Монкока в Тайпоу. Как только красная маршрутка проходит тоннель Лайон-Рок - переход с Коулуна на новые территории, - Гонконг становится городом-призраком. По прибытии в Тайпоу все, находившиеся в автобусе, начинают понимать, что что-то не так. Почему на улицах пусто? Где все? Почему на их звонки никто не отвечает? И кто эти таинственные фигуры в масках, время от времени появляющиеся перед растерянными пассажирами?

Перевод: Двухголосый закадровый, любительский
Озвучка: DeadSno & den904
Автор перевода: Skyworker
Субтитры: Вшитые отключаемые
Язык субтитров: Русский (митричоджисан), английский



Дата мировой премьеры: 07.02.2014

Продолжительность: 02:00:34
Качество видео: HDRip

Видеокодек: XviD,
Битрейт видео: 1880 Kbps
Размер кадра: 720x304
Аудио 1: AC3, (6 ch), 320 Kbps - русский
Аудио 2: AC3, (2 ch), 256 Kbps - оригинал (китайский)
Сэмпл: Скачать
Код:
Код:
Общее
Полное имя                               : C:\Фильмы\The Midnight After (2014) HDRip.avi
Формат                                   : AVI
Формат/Информация                        : Audio Video Interleave
Профиль формата                          : OpenDML
Настройки формата                        : rec
Размер файла                             : 2,07 Гбайт
Продолжительность                        : 2 ч. 0 м.
Общий поток                              : 2463 Кбит/сек
Программа кодирования                    : AVI-Mux GUI 1.17.8.3, Feb 16 201019:42:50

Видео
Идентификатор                            : 0
Формат                                   : MPEG-4 Visual
Профиль формата                          : Advanced Simple@L5
Параметр BVOP формата                    : Нет
Параметр QPel формата                    : Нет
Параметр GMC формата                     : Без точки перехода
Параметр матрицы формата                 : Default (MPEG)
Идентификатор кодека                     : XVID
Идентификатор кодека/Подсказка           : XviD
Продолжительность                        : 2 ч. 0 м.
Битрейт                                  : 1880 Кбит/сек
Ширина                                   : 720 пикселей
Высота                                   : 304 пикселя
Соотношение сторон                       : 2,35:1
Частота кадров                           : 24,000 кадра/сек
Цветовое пространство                    : YUV
Субдискретизация насыщенности            : 4:2:0
Битовая глубина                          : 8 бит
Тип развёртки                            : Прогрессивная
Метод сжатия                             : С потерями
Бит/(Пиксели*Кадры)                      : 0.358
Размер потока                            : 1,58 Гбайт (76%)
Библиотека кодирования                   : XviD 62

Аудио #1
Идентификатор                            : 1
Формат                                   : AC-3
Формат/Информация                        : Audio Coding 3
Расширение режима                        : CM (complete main)
Параметр Endianness формата              : Big
Идентификатор кодека                     : 2000
Продолжительность                        : 2 ч. 0 м.
Вид битрейта                             : Постоянный
Битрейт                                  : 320 Кбит/сек
Каналы                                   : 6 каналов
Расположение каналов                     : Front: L C R, Side: L R, LFE
Частота                                  : 48,0 КГц
Битовая глубина                          : 16 бит
Метод сжатия                             : С потерями
Размер потока                            : 276 Мбайт (13%)
Выравнивание                             : Соединение по промежуткам
Продолжительность промежутка             : 64  мс. (1,54 видеокадра)
Время предзагрузки промежутка            : 192  мс.
Заголовок                                : Rus_275

Аудио #2
Идентификатор                            : 2
Формат                                   : AC-3
Формат/Информация                        : Audio Coding 3
Расширение режима                        : CM (complete main)
Параметр Endianness формата              : Big
Идентификатор кодека                     : 2000
Продолжительность                        : 2 ч. 0 м.
Вид битрейта                             : Постоянный
Битрейт                                  : 256 Кбит/сек
Каналы                                   : 2 канала
Расположение каналов                     : Front: L R
Частота                                  : 48,0 КГц
Битовая глубина                          : 16 бит
Метод сжатия                             : С потерями
Размер потока                            : 221 Мбайт (10%)
Выравнивание                             : Соединение по промежуткам
Продолжительность промежутка             : 64  мс. (1,54 видеокадра)
Время предзагрузки промежутка            : 192  мс.
Заголовок                                : Chi_220
Скриншоты:

загрузка...
Правила, инструкции, FAQ!!!
Торрент  Добавлен [09 янв 2015, 23:48] Скачать торрент
Скачать торрент
[ Размер 11.2 КБ / Просмотров 10 ]

Статус
Проверен 
 
Размер  2.07 ГБ
Приватный: Нет (DHT включён)
.torrent скачан  0
Как залить торрент? | Как скачать Torrent? | Как смотреть и слушать онлайн?  


     Отправить личное сообщение
   
Страница 1 из 1
Показать сообщения за:  Поле сортировки  
Начать новую тему Ответить на тему

   Похожие торренты   Автор   Ответы   Просмотры   Последнее сообщение 
В этой теме нет новых непрочитанных сообщений. Скачать торрент Проверен Дина Оттом | Двери в полночь (2014) [FB2]

в форуме Фантастика, фэнтези, Размер: 1.88 МБ, Здоровье: 100%

Anonymous

0
8|2

20
0

05 авг 2014, 08:07

Anonymous Перейти к последнему сообщению

В этой теме нет новых непрочитанных сообщений. Скачать торрент Проверен Успеть до полуночи / Midnight Run (1988) HDRip | Р

в форуме Боевики, Размер: 1.45 ГБ, Здоровье: 100%

Гость

0
162|14

135
338

25 апр 2015, 22:25

Гость Перейти к последнему сообщению

В этой теме нет новых непрочитанных сообщений. Скачать торрент Проверен Донцова Дарья - Любимица фортуны Степанида Козлова 9: Лунатик исчезает в полночь [Галина Чигинская, 2014 г., 128 kbps, MP3]

в форуме Детектив и Боевики, Размер: 515.89 МБ, Здоровье: 100%

Anonymous

0
25|8

0
0

20 ноя 2016, 16:51

Anonymous Перейти к последнему сообщению

В этой теме нет новых непрочитанных сообщений. Скачать торрент Проверен (Rock,Prog-Rock) Midnight Sun (1972 / 1974) - Walking Circles / Midnight Dream - 2001, FLAC (image+.cue), lossless

в форуме Heavy, Power, Progressive (Metal), Размер: 549.1 МБ, Здоровье: 0%

Anonymous

0
0|0

4
0

11 окт 2016, 21:24

Anonymous Перейти к последнему сообщению

В этой теме нет новых непрочитанных сообщений. Скачать торрент Проверен (Symphonic Heavy/Power Metal) [CD] Midnight Eternal - Midnight Eternal (Japanese Edition) - 2016, FLAC (image+.cue), lossless

в форуме Heavy, Power, Progressive (Metal), Размер: 482.32 МБ, Здоровье: 0%

Anonymous

0
0|0

11
0

11 окт 2016, 22:39

Anonymous Перейти к последнему сообщению



Сейчас этот форум просматривают: нет зарегистрированных пользователей и гости: 1


Вы не можете начинать темы
Вы не можете отвечать на сообщения
Вы не можете редактировать свои сообщения
Вы не можете удалять свои сообщения
Вы не можете добавлять вложения

Перейти:  

!ВНИМАНИЕ!
 Ресурс не предоставляет электронные версии произведений, а занимается лишь коллекционированием и каталогизацией ссылок, присылаемых и публикуемых на форуме нашими читателями. Если вы являетесь правообладателем какого-либо представленного материала и не желаете чтобы ссылка на него находилась в нашем каталоге, свяжитесь с нами и мы незамедлительно удалим её. Файлы для обмена на трекере предоставлены пользователями сайта, и администрация не несёт ответственности за их содержание. Просьба не заливать файлы, защищенные авторскими правами, а также файлы нелегального содержания!