На всех торрентах на трекере установлена скидка на скачивание в размере 100 процентов(а).
 Возможность скачивания торрента НЕ зависит от ограничений при низком ратио, низком аплоаде, требуемом ратио или требуемом аплоаде.


Начать новую тему Ответить на тему
Статистика раздачи
Размер: 1.9 ГБ | Добавлен: 09 янв 2015, 23:11 | Скачали: 1
Сидеров: 1  [0 байт/сек]    Личеров: 0  [0 байт/сек]
Пред. тема | След. тема 

Автор
Сообщение

СообщениеДобавлено: 09 янв 2015, 23:11 

Год выпуска: 2012
Производство: США
Жанр: Триллер, криминал, экранизация

Режиссер: Эндрю Доминик
Актеры: Брэд Питт, Ричард Дженкинс, Джеймс Гандольфини, Рэй Лиотта, Скут МакНэйри, Бен Мендельсон, Винсент Куратола, Тревор Лонг, Макс Каселла, Сэм Шепард

Описание фильма:
Во время подпольной игры в покер совершено ограбление, и угроза повисла над всем воровским сообществом. Воротилы мафии рассчитывают, что Джеки Коган найдет виновных. Однако, вращаясь среди нерешительных заказчиков, жуликов-ростовщиков, усталых убийц и тех, кто спланировал «дело», даже специалисту трудно сохранить контроль над ситуацией…

Перевод: Дублированный, профессиональный двухголосый, авторский
Язык субтитров: Русский, английский
Вид субтитров: Вшитые (отключаемые)



Продолжительность: 01:37:15
Качество видео: BDRip (AVC)

Видеокодек: MPEG-4 AVC
Битрейт видео: ~1641 Кбит/с
Размер кадра: 1024x426
Аудио:
1. AC3, 6 ch, 384 Кбит/с - русский (дублированный (BD CEE))
2. AC3, 6 ch, 384 Кбит/с - русский авторский (Ю. Сербин, ненормативная лексика)
3. AC3, 2 ch, 192 Кбит/с - украинский (профессиональный двухголосый (1+1))
4. AC3, 6 ch, 192 Кбит/с - английский
Общее
Уникальный идентификатор : 247698658936619065731763905230938815679 (0xBA5906C4F8EC0A9AB88B59102857BCBF)
Полное имя : C:\NNM\Ограбление казино\Ograblenie kazino 2012 BDRip-AVC.mkv
Формат : Matroska
Версия формата : Version 2
Размер файла : 1,90 Гбайт
Продолжительность : 1 ч. 37 м.
Общий поток : 2792 Кбит/сек
Дата кодирования : UTC 2015-01-09 10:01:05
Программа кодирования : mkvmerge v6.6.0 ('The Edge Of The In Between') built on Dec 1 2013 17:55:00
Библиотека кодирования : libebml v1.3.0 + libmatroska v1.4.1

Видео
Идентификатор : 1
Формат : AVC
Формат/Информация : Advanced Video Codec
Профиль формата :
Параметр CABAC формата : Да
Параметр ReFrames формата : 8 кадров
Идентификатор кодека : V_MPEG4/ISO/AVC
Продолжительность : 1 ч. 37 м.
Битрейт : 1641 Кбит/сек
Ширина : 1024 пикселя
Высота : 426 пикселей
Соотношение сторон : 2,40:1
Частота кадров : 23,976 кадра/сек
Цветовое пространство : YUV
Субдискретизация насыщенности : 4:2:0
Битовая глубина : 8 бит
Тип развёртки : Прогрессивная
Бит/(Пиксели*Кадры) : 0.157
Размер потока : 1,08 Гбайт (57%)
Библиотека кодирования : x264 core 133 r2334 a3ac64b
Настройки программы : cabac=1 / ref=8 / deblock=1:-3:-3 / analyse=0x3:0x113 / me=umh / subme=11 / psy=1 / psy_rd=1.00:0.20 / mixed_ref=1 / me_range=32 / chroma_me=1 / trellis=2 / 8x8dct=1 / cqm=0 / deadzone=21,11 / fast_pskip=0 / chroma_qp_offset=-3 / threads=3 / lookahead_threads=1 / sliced_threads=0 / nr=0 / decimate=0 / interlaced=0 / bluray_compat=0 / constrained_intra=0 / bframes=12 / b_pyramid=2 / b_adapt=2 / b_bias=0 / direct=3 / weightb=1 / open_gop=0 / weightp=2 / keyint=240 / keyint_min=23 / scenecut=40 / intra_refresh=0 / rc_lookahead=40 / rc=2pass / mbtree=0 / bitrate=1641 / ratetol=1.0 / qcomp=0.60 / qpmin=0 / qpmax=69 / qpstep=4 / cplxblur=20.0 / qblur=0.5 / vbv_maxrate=50000 / vbv_bufsize=50000 / nal_hrd=none / ip_ratio=1.40 / pb_ratio=1.30 / aq=1:1.00
Язык : English
Default : Да
Forced : Да

Аудио #1
Идентификатор : 2
Формат : AC-3
Формат/Информация : Audio Coding 3
Расширение режима : CM (complete main)
Идентификатор кодека : A_AC3
Продолжительность : 1 ч. 37 м.
Вид битрейта : Постоянный
Битрейт : 384 Кбит/сек
Каналы : 6 каналов
Расположение каналов : Front: L C R, Side: L R, LFE
Частота : 48,0 КГц
Битовая глубина : 16 бит
Метод сжатия : С потерями
Размер потока : 267 Мбайт (14%)
Заголовок : Дублированный [BD] AC3 5.1 @ 384 kbps
Язык : Russian
Default : Да
Forced : Да

Аудио #2
Идентификатор : 3
Формат : AC-3
Формат/Информация : Audio Coding 3
Расширение режима : CM (complete main)
Идентификатор кодека : A_AC3
Продолжительность : 1 ч. 37 м.
Вид битрейта : Постоянный
Битрейт : 384 Кбит/сек
Каналы : 6 каналов
Расположение каналов : Front: L C R, Side: L R, LFE
Частота : 48,0 КГц
Битовая глубина : 16 бит
Метод сжатия : С потерями
Размер потока : 267 Мбайт (14%)
Заголовок : Авторский [Юрий Сербин, ненорматив] AC3 5.1 @ 384 kbps
Язык : Russian
Default : Нет
Forced : Нет

Аудио #3
Идентификатор : 4
Формат : AC-3
Формат/Информация : Audio Coding 3
Расширение режима : CM (complete main)
Идентификатор кодека : A_AC3
Продолжительность : 1 ч. 37 м.
Вид битрейта : Постоянный
Битрейт : 192 Кбит/сек
Каналы : 2 канала
Расположение каналов : Front: L R
Частота : 48,0 КГц
Битовая глубина : 16 бит
Метод сжатия : С потерями
Размер потока : 134 Мбайт (7%)
Заголовок : Двухголосый [1plus1] Hurtom AC3 2.0 @ 192 kbps
Язык : Ukrainian
Default : Нет
Forced : Нет

Аудио #4
Идентификатор : 5
Формат : AC-3
Формат/Информация : Audio Coding 3
Расширение режима : CM (complete main)
Идентификатор кодека : A_AC3
Продолжительность : 1 ч. 37 м.
Вид битрейта : Постоянный
Битрейт : 192 Кбит/сек
Каналы : 6 каналов
Расположение каналов : Front: L C R, Side: L R, LFE
Частота : 48,0 КГц
Битовая глубина : 16 бит
Метод сжатия : С потерями
Размер потока : 134 Мбайт (7%)
Заголовок : AC3 5.1 @ 384 kbps
Язык : English
Default : Нет
Forced : Нет

Текст #1
Идентификатор : 6
Формат : UTF-8
Идентификатор кодека : S_TEXT/UTF8
Идентификатор кодека/Информация : UTF-8 Plain Text
Язык : Russian
Default : Нет
Forced : Нет

Текст #2
Идентификатор : 7
Формат : UTF-8
Идентификатор кодека : S_TEXT/UTF8
Идентификатор кодека/Информация : UTF-8 Plain Text
Язык : Russian
Default : Нет
Forced : Нет

Текст #3
Идентификатор : 8
Формат : UTF-8
Идентификатор кодека : S_TEXT/UTF8
Идентификатор кодека/Информация : UTF-8 Plain Text
Заголовок : SDH
Язык : English
Default : Нет
Forced : Нет

Меню
00:00:00.000 : en:Chapter 1
00:11:11.796 : en:Chapter 2
00:23:35.372 : en:Chapter 3
00:29:25.097 : en:Chapter 4
00:35:25.665 : en:Chapter 5
00:46:34.709 : en:Chapter 6
00:54:55.334 : en:Chapter 7
01:05:37.350 : en:Chapter 8
01:10:36.107 : en:Chapter 9
01:17:56.922 : en:Chapter 10
01:23:01.018 : en:Chapter 11
01:31:18.056 : en:Chapter 12
Скриншоты:
[center]
загрузка...
Правила, инструкции, FAQ!!!
Торрент  Добавлен [09 янв 2015, 23:11] Скачать торрент
Скачать торрент
[ Размер 19.7 КБ / Просмотров 5 ]

Статус
Проверен 
 
Размер  1.9 ГБ
Приватный: Нет (DHT включён)
.torrent скачан  1
Как залить торрент? | Как скачать Torrent? | Как смотреть и слушать онлайн?  


     Отправить личное сообщение
   
Страница 1 из 1
Показать сообщения за:  Поле сортировки  
Начать новую тему Ответить на тему

   Похожие торренты   Автор   Ответы   Просмотры   Последнее сообщение 
В этой теме нет новых непрочитанных сообщений. Скачать торрент Проверен Джордж Хиггинс | Ограбление казино [2012] [RTF, FB2]

в форуме Детективы и Боевики, Размер: 5.21 МБ, Здоровье: 100%

Anonymous

0
4|1

16
0

18 сен 2014, 17:45

Anonymous Перейти к последнему сообщению

В этой теме нет новых непрочитанных сообщений. Скачать торрент Проверен Джордж В. Хиггинс / George V. Higgins - Друзья Эдди Койла, Ограбление казино [1994-2012, fb2 / pdf / rtf, Rus]

в форуме Детективы и Боевики, Размер: 10.88 МБ, Здоровье: 0%

Anonymous

0
0|0

7
0

08 сен 2016, 21:26

Anonymous Перейти к последнему сообщению

В этой теме нет новых непрочитанных сообщений. Скачать торрент Проверен [TR24][OF] Roberta Flack - Killing Me Softly - 1973/2012 (Jazz, Soul)

в форуме Hi-Res stereo (Джаз и Блюз), Размер: 1.61 ГБ, Здоровье: 100%

Anonymous

0
9|3

23
0

27 авг 2016, 13:37

Anonymous Перейти к последнему сообщению

В этой теме нет новых непрочитанных сообщений. Скачать торрент Проверен (Hard Rock) Killer Bee - 2 Albums (Rock Another Day, Killing You Softly) - 2015 - 2016, MP3, 320 kbps

в форуме Classic Rock & Hard Rock, Размер: 274.73 МБ, Здоровье: 0%

Anonymous

0
0|0

0
0

14 ноя 2016, 20:03

Anonymous Перейти к последнему сообщению

В этой теме нет новых непрочитанных сообщений. Скачать торрент Проверен Серова Марина - Казино ты мое, казино [Тамара Швец, 2014 г., 128 kbps, MP3]

в форуме Детектив и Боевики, Размер: 325.1 МБ, Здоровье: 0%

Anonymous

0
0|0

1
0

20 ноя 2016, 12:54

Anonymous Перейти к последнему сообщению



Сейчас этот форум просматривают: нет зарегистрированных пользователей и гости: 3


Вы не можете начинать темы
Вы не можете отвечать на сообщения
Вы не можете редактировать свои сообщения
Вы не можете удалять свои сообщения
Вы не можете добавлять вложения

Перейти:  

!ВНИМАНИЕ!
 Ресурс не предоставляет электронные версии произведений, а занимается лишь коллекционированием и каталогизацией ссылок, присылаемых и публикуемых на форуме нашими читателями. Если вы являетесь правообладателем какого-либо представленного материала и не желаете чтобы ссылка на него находилась в нашем каталоге, свяжитесь с нами и мы незамедлительно удалим её. Файлы для обмена на трекере предоставлены пользователями сайта, и администрация не несёт ответственности за их содержание. Просьба не заливать файлы, защищенные авторскими правами, а также файлы нелегального содержания!