На всех торрентах на трекере установлена скидка на скачивание в размере 100 процентов(а).
 Возможность скачивания торрента НЕ зависит от ограничений при низком ратио, низком аплоаде, требуемом ратио или требуемом аплоаде.


Начать новую тему Ответить на тему
Статистика раздачи
Размер: 1.46 ГБ | Добавлен: 07 янв 2015, 19:25 | Скачали: 132
Сидеров: 101  [0 байт/сек]    Личеров: 34  [0 байт/сек]
Пред. тема | След. тема 

Автор
Сообщение

СообщениеДобавлено: 07 янв 2015, 19:25 

Название: Один Восемь Семь (187)
Оригинальное название: One Eight Seven
Год выхода: 1997
Жанр: Триллер, драма
Режиссер: Кевин Рейнолдс
В ролях: Сэмюэл Л. Джексон, Джон Хёрд, Келли Рауэн, Клифтон Гонсалес Гонсалес, Тони Плана, Карина Арройяве, Лобо Себастиан, Джек Келер, Джона Руни, Клифтон Коллинз мл., Энтвон Тэннер, Деметриус Наварро, Доминик Хоффман, Метод Мэн, Гай Торри, Ричард Рили, Лобо Себастьян, Джонни Богрис, Лиза Дель Мундо

О фильме:
Где обитают ублюдки? Учитель из Бруклина Тревор Гарфилд видит их каждый день в школе. Это готовые бандиты, от которых можно ждать чего угодно. Один из них из мести совершает попытку убить Гарфилда. После этого Гарфилд переезжает в Лос-Анджелес и... оказывается в таком же дерьме. Когда его терпению пришёл конец, он заставил подонков расплачиваться кровью за каждый совершённый проступок.

Страна: США, Warner Bros. Pictures, Icon Productions
Продолжительность: 01:59:01
Перевод: Профессиональный (двухголосый закадровый)




Кодек: XviD
Качество: WEBRip
Видео: 720x400, 23,976 fps, 1557 kbps
Звук: AC3, 2 ch, 192 kbps
Общее
Полное имя : One.Eight.Seven.1997.WEBRip.avi
Формат : AVI
Формат/Информация : Audio Video Interleave
Размер файла : 1,46 Гбайт
Продолжительность : 1 ч. 59 м.
Общий поток : 1758 Кбит/сек
Программа кодирования : VirtualDubMod 1.5.10.3 | http://www.virtualdub-fr.org || (build 2550/release)
Библиотека кодирования : VirtualDubMod build 2550/release

Видео
Идентификатор : 0
Формат : MPEG-4 Visual
Профиль формата : Advanced Simple@L5
Параметр BVOP формата : 1
Параметр QPel формата : Нет
Параметр GMC формата : Без точки перехода
Параметр матрицы формата : Выборочная
Идентификатор кодека : XVID
Идентификатор кодека/Подсказка : XviD
Продолжительность : 1 ч. 59 м.
Битрейт : 1557 Кбит/сек
Ширина : 720 пикс.
Высота : 400 пикс.
Соотношение сторон : 16:9
Частота кадров : 23,976 кадр/сек
Цветовое пространство : YUV
Подвыборка цветности : 4:2:0
Битовая глубина : 8 бит
Тип развёртки : Прогрессивная
Метод сжатия : С потерями
Бит/(Пиксели*Кадры) : 0.225
Размер потока : 1,29 Гбайт (89%)
Библиотека кодирования : XviD 73

Аудио
Идентификатор : 1
Формат : AC-3
Формат/Информация : Audio Coding 3
Расширение режима : CM (complete main)
Идентификатор кодека : 2000
Продолжительность : 1 ч. 59 м.
Вид битрейта : Постоянный
Битрейт : 192 Кбит/сек
Канал(ы) : 2 канала(ов)
Расположение каналов : Front: L R
Частота : 48,0 КГц
Битовая глубина : 16 бит
Метод сжатия : С потерями
Размер потока : 163 Мбайт (11%)
Выравнивание : Разделение по промежуткам
Продолжительность промежутка : 42 мс. (1,00 видеокадр)
Время предзагрузки промежутка : 500 ms


Релиз от: Leon-masl
загрузка...
Правила, инструкции, FAQ!!!
Торрент  Добавлен [07 янв 2015, 19:25] Скачать торрент
Скачать торрент
[ Размер 15.31 КБ / Просмотров 10 ]

Статус
Проверен 
 
Размер  1.46 ГБ
Приватный: Нет (DHT включён)
.torrent скачан  132
Как залить торрент? | Как скачать Torrent? | Как смотреть и слушать онлайн?  


     Отправить личное сообщение
   
Страница 1 из 1
Показать сообщения за:  Поле сортировки  
Начать новую тему Ответить на тему

   Похожие торренты   Автор   Ответы   Просмотры   Последнее сообщение 
В этой теме нет новых непрочитанных сообщений. Скачать торрент Проверен Чёрная кошка - Леонов Н. - Один и без оружия [1997, PDF/DjVu/FB2, RUS]

в форуме Детективы и Боевики, Размер: 37.35 МБ, Здоровье: 100%

Anonymous

0
7|2

14
0

08 сен 2016, 22:01

Anonymous Перейти к последнему сообщению

В этой теме нет новых непрочитанных сообщений. Скачать торрент Проверен Виталий Волович | С природой один на один (1989) [PDF, DJVU]

в форуме Нетрадиционная медицина, Размер: 22.82 МБ, Здоровье: 100%

Гость

0
50|3

87
6

23 ноя 2015, 21:51

Гость Перейти к последнему сообщению

В этой теме нет новых непрочитанных сообщений. Скачать торрент Проверен Прилепин Захар - Не чужая смута. Один день - один год [Сергеев Максим, 2015, Публицистика, 128 kbps], M4B

в форуме Аудиокниги (AAC, ALAC), Размер: 495.42 МБ, Здоровье: 100%

Anonymous

0
5|1

8
0

28 авг 2016, 19:09

Anonymous Перейти к последнему сообщению

В этой теме нет новых непрочитанных сообщений. Скачать торрент Проверен Appleby R., Bradley J., Leeke N. - Business One to One Advanced (Teacher's Book) / Бизнес один на один. Книга учителя [2008, PDF, ENG]

в форуме Английский язык (для взрослых), Размер: 41.36 МБ, Здоровье: 0%

Anonymous

0
0|0

0
0

Вчера, 22:53

Anonymous Перейти к последнему сообщению

В этой теме нет новых непрочитанных сообщений. Скачать торрент Проверен Холод - Один на Один (2013) [MP3|320 кб/с]<Metalcore/Progressive>

в форуме Русский Рок, Размер: 70.95 МБ, Здоровье: 100%

Anonymous

0
2|1

68
0

15 июл 2014, 08:40

Anonymous Перейти к последнему сообщению



Сейчас этот форум просматривают: нет зарегистрированных пользователей и гости: 1


Вы не можете начинать темы
Вы не можете отвечать на сообщения
Вы не можете редактировать свои сообщения
Вы не можете удалять свои сообщения
Вы не можете добавлять вложения

Перейти:  

!ВНИМАНИЕ!
 Ресурс не предоставляет электронные версии произведений, а занимается лишь коллекционированием и каталогизацией ссылок, присылаемых и публикуемых на форуме нашими читателями. Если вы являетесь правообладателем какого-либо представленного материала и не желаете чтобы ссылка на него находилась в нашем каталоге, свяжитесь с нами и мы незамедлительно удалим её. Файлы для обмена на трекере предоставлены пользователями сайта, и администрация не несёт ответственности за их содержание. Просьба не заливать файлы, защищенные авторскими правами, а также файлы нелегального содержания!