На всех торрентах на трекере установлена скидка на скачивание в размере 100 процентов(а).
 Возможность скачивания торрента НЕ зависит от ограничений при низком ратио, низком аплоаде, требуемом ратио или требуемом аплоаде.


Начать новую тему Ответить на тему
Статистика раздачи
Размер: 1.45 ГБ | Добавлен: 17 дек 2014, 19:51 | Скачали: 0
Сидеров: 125  [0 байт/сек]    Личеров: 30  [0 байт/сек]
Пред. тема | След. тема 

Автор
Сообщение

СообщениеДобавлено: 17 дек 2014, 19:51 

Год выпуска: 2006
Производство: США | Wishmaker Films, Oxygen Channel
Жанр: Триллер, Драма, Криминал

Описание фильма:
Героиня фильма, профессиональная угонщица машин, крадет раритетный автомобиль. Оказывается, что его владелец — серийный убийца. Последствия не заставляют себя долго ждать…

Режиссер: Кари Скогланд
Актеры: Тэрин Мэннинг, Романо Орцари, Майк Ломбарди, Дженелл Уильямс, Кристиан Кэмпбелл, Тони Калабретта, Морган Келли, Бронуэн Мэнтел, Николас Райт, Майк Царь, Маурицио Терраццано, Эндрю Шэйвер, Джанкарло Кальтабиано, Фелиция Шульман, Деррик Дэймон Рив

Продолжительность: 01:30:55
Качество видео: DVDRip
Перевод: Профессиональный (многоголосый, закадровый)
Язык субтитров: Отсутствуют



Дата мировой премьеры: 24 июня 2006
Дата выхода DVD релиза: 11 сентября 2008, «Вокс Видео»

Видео: 720x384 (1.85:1), 25 fps, XviD build 64 ~1630 kbps avg, 0.236 bit/pixel
Аудио №1: 48 kHz, AC3 Dolby Digital, 3/2 (L,C,R,l,r) + LFE ch, ~448 kbps | Русский MVO
Аудио №2: 48 kHz, AC3 Dolby Digital, 2/0 (L,R) ch, ~192 kbps | Английский
Сэмпл: Скачать
Код:
Код:
General
Complete name                  : E:\фильмы\Banshi.muzyka.smerti.2006.DVDRip.avi
Format                         : AVI
Format/Info                    : Audio Video Interleave
Format profile                 : OpenDML
File size                      : 1.45 GiB
Duration                       : 1h 30mn
Overall bit rate               : 2 289 Kbps
Writing application            : XviD4PSP 6.0 / 54.29.105

Video
ID                             : 0
Format                         : MPEG-4 Visual
Format profile                 : Advanced Simple@L5
Format settings, BVOP          : Yes
Format settings, QPel          : No
Format settings, GMC           : 3 warppoints
Format settings, Matrix        : Default (H.263)
Codec ID                       : XVID
Codec ID/Hint                  : XviD
Duration                       : 1h 30mn
Bit rate                       : 1 630 Kbps
Width                          : 720 pixels
Height                         : 384 pixels
Display aspect ratio           : 1.85:1
Frame rate                     : 25.000 fps
Color space                    : YUV
Chroma subsampling             : 4:2:0
Bit depth                      : 8 bits
Scan type                      : Progressive
Compression mode               : Lossy
Bits/(Pixel*Frame)             : 0.236
Stream size                    : 1.04 GiB (71%)
Writing library                : XviD 64

Audio #1
ID                             : 1
Format                         : AC-3
Format/Info                    : Audio Coding 3
Mode extension                 : CM (complete main)
Format settings, Endianness    : Big
Codec ID                       : 2000
Duration                       : 1h 30mn
Bit rate mode                  : Constant
Bit rate                       : 448 Kbps
Channel(s)                     : 6 channels
Channel positions              : Front: L C R, Side: L R, LFE
Sampling rate                  : 48.0 KHz
Bit depth                      : 16 bits
Compression mode               : Lossy
Stream size                    : 291 MiB (20%)
Alignment                      : Aligned on interleaves
Interleave, duration           : 32 ms (0.80 video frame)

Audio #2
ID                             : 2
Format                         : AC-3
Format/Info                    : Audio Coding 3
Mode extension                 : CM (complete main)
Format settings, Endianness    : Big
Codec ID                       : 2000
Duration                       : 1h 30mn
Bit rate mode                  : Constant
Bit rate                       : 192 Kbps
Channel(s)                     : 2 channels
Channel positions              : Front: L R
Sampling rate                  : 48.0 KHz
Bit depth                      : 16 bits
Compression mode               : Lossy
Stream size                    : 125 MiB (8%)
Alignment                      : Aligned on interleaves
Interleave, duration           : 32 ms (0.80 video frame)
[font=Georgia]Скриншоты:

загрузка...
Правила, инструкции, FAQ!!!
Торрент  Добавлен [17 дек 2014, 19:51] Скачать торрент
Скачать торрент
[ Размер 15.36 КБ / Просмотров 3 ]

Статус
Проверен 
 
Размер  1.45 ГБ
Приватный: Нет (DHT включён)
.torrent скачан  0
Как залить торрент? | Как скачать Torrent? | Как смотреть и слушать онлайн?  


     Отправить личное сообщение
   
Страница 1 из 1
Показать сообщения за:  Поле сортировки  
Начать новую тему Ответить на тему

   Похожие торренты   Автор   Ответы   Просмотры   Последнее сообщение 
В этой теме нет новых непрочитанных сообщений. Скачать торрент Проверен После смерти / Afterlife [S01-02] (2005-2006) DVDRip | P

в форуме Зарубежные сериалы, Размер: 5.39 ГБ, Здоровье: 100%

Anonymous

0
3|2

82
9

25 май 2014, 23:01

Anonymous Перейти к последнему сообщению

В этой теме нет новых непрочитанных сообщений. Скачать торрент Проверен Музыка с мамой. Весёлые пальчики (2006) DVDRip

в форуме Развивающее Видео для детей, Размер: 599.98 МБ, Здоровье: ???%

Anonymous

0
0|6

9
1

30 ноя 2015, 22:55

Anonymous Перейти к последнему сообщению

В этой теме нет новых непрочитанных сообщений. Скачать торрент Проверен Музыка с Мамой - Веселая гимнастика для малышей [2006 г., Обучающее видео, DVDRip]

в форуме Обучающие издания для детей, Размер: 599.65 МБ, Здоровье: 100%

Anonymous

0
57|20

46
2

28 янв 2015, 00:05

Anonymous Перейти к последнему сообщению

В этой теме нет новых непрочитанных сообщений. Скачать торрент Проверен Сергей и Екатерина Железновы | Музыка с Мамой - Веселая гимнастика для малышей [2006] DVDRip

в форуме Развивающее Видео для детей, Размер: 599.65 МБ, Здоровье: 100%

Anonymous

0
11|0

47
1

30 ноя 2015, 23:39

Anonymous Перейти к последнему сообщению

В этой теме нет новых непрочитанных сообщений. Скачать торрент Территория смерти: Дорога домой / Долина смерти / Deathlands: Homeward Bound (Джошуа Батлер / Joshua Butler) [2003, США, Боевик, пост-апокалипсис, фантастика, DVDRip]

в форуме Боевики, Размер: 1.46 ГБ, Здоровье: 100%

Anonymous

0
2|1

48
0

22 апр 2014, 11:40

Anonymous Перейти к последнему сообщению



Сейчас этот форум просматривают: нет зарегистрированных пользователей и гости: 2


Вы не можете начинать темы
Вы не можете отвечать на сообщения
Вы не можете редактировать свои сообщения
Вы не можете удалять свои сообщения
Вы не можете добавлять вложения

Перейти:  

!ВНИМАНИЕ!
 Ресурс не предоставляет электронные версии произведений, а занимается лишь коллекционированием и каталогизацией ссылок, присылаемых и публикуемых на форуме нашими читателями. Если вы являетесь правообладателем какого-либо представленного материала и не желаете чтобы ссылка на него находилась в нашем каталоге, свяжитесь с нами и мы незамедлительно удалим её. Файлы для обмена на трекере предоставлены пользователями сайта, и администрация не несёт ответственности за их содержание. Просьба не заливать файлы, защищенные авторскими правами, а также файлы нелегального содержания!