На всех торрентах на трекере установлена скидка на скачивание в размере 100 процентов(а).
 Возможность скачивания торрента НЕ зависит от ограничений при низком ратио, низком аплоаде, требуемом ратио или требуемом аплоаде.


Начать новую тему Ответить на тему
Статистика раздачи
Размер: 2.81 ГБ | Добавлен: 07 дек 2014, 17:34 | Скачали: 628
Сидеров: 78  [0 байт/сек]    Личеров: 10  [0 байт/сек]
Пред. тема | След. тема 

Автор
Сообщение

СообщениеДобавлено: 07 дек 2014, 17:34 

Название: Открытое море
Оригинальное название: Open Water
Год выхода: 2003
Жанр: Триллер, драма
Режиссер: Крис Кентис
В ролях: Блэнчард Райан, Дэниэл Трэвис, Сол Стайн, Майкл Э. Уильямсон, Кристина Зенарро, Джон Чарльз, Эстелл Лау, Стив Лемми

О фильме: Молодая семейная пара отправляется отдыхать на Багамы. Отдых обещает быть романтичным и захватывающим. Сьюзан и Дэниел заказывают места на катере для любителей ныряния, который обещает вывезти туристов к самым красивым местам мирового океана. Но прекрасное погружение заканчивается кошмаром. Всплыв на поверхность, герои обнаруживают, что катер уплыл, оставив их в открытом море в пятнадцати километрах от берега одних. И тут появляется стая акул...



Страна: США
Студия: Universum Film, Lions Gate Films
Продолжительность: 01:19:44
Перевод: Профессиональный многоголосый, профессиональный двухголосый


Кодек: MPEG-4 AVC
Качество: BDRip-AVC
Видео: 3500 Кбит/с, 1024х554, 23.976 кадр/с
Звук:
Аудио #1: Русский (AC3, 6 ch, 448 Кбит/с) / Дублированный
Аудио #2: Русский (AC3, 6 ch, 448 Кбит/с) / Профессиональный многоголосый
Аудио #3: Русский (AC3, 2 ch, 192 Кбит/с) / Профессиональный двухголосый
Аудио #4: Английский (AC3, 6 ch, 448 Кбит/с)
Субтитры: Русские, английские

Семпл

Общее
Уникальный идентификатор : 212744285499830364175700513578911060052 (0xA00D0F1A3D69E25389BC40CCE630D054)
Полное имя : D:2Films DРелизыOtkrytoe.more.2003.x264.BDRip.AVC.MediaClub.mkv
Формат : Matroska
Версия формата : Version 4 / Version 2
Размер файла : 2,81 Гбайт
Продолжительность : 1 ч. 19 м.
Общий поток : 5038 Кбит/сек
Название фильма : -= MediaClub =- rip by Lefevr
Дата кодирования : UTC 2014-09-18 13:41:34
Программа кодирования : mkvmerge v6.6.0 ('The Edge Of The In Between') built on Dec 1 2013 17:55:00
Библиотека кодирования : libebml v1.3.0 + libmatroska v1.4.1

Видео
Идентификатор : 1
Формат : AVC
Формат/Информация : Advanced Video Codec
Профиль формата : High@L4.1
Параметр CABAC формата : Да
Параметр ReFrames формата : 9 кадров
Идентификатор кодека : V_MPEG4/ISO/AVC
Продолжительность : 1 ч. 19 м.
Битрейт : 3500 Кбит/сек
Ширина : 1024 пикселя
Высота : 554 пикселя
Соотношение сторон : 1,85:1
Режим частоты кадров : Постоянный
Частота кадров : 23,976 кадра/сек
Цветовое пространство : YUV
Субдискретизация насыщенности : 4:2:0
Битовая глубина : 8 бит
Тип развёртки : Прогрессивная
Бит/(Пиксели*Кадры) : 0.257
Размер потока : 1,89 Гбайт (68%)
Заголовок : Otkrytoe.more.2003.x264.BDRip.AVC.MediaClub
Библиотека кодирования : x264 core 142 r2409+42 04be48a tMod [8-bit@4:2:0 X86]
Настройки программы : cabac=1 / ref=9 / deblock=1:-2:-2 / analyse=0x3:0x133 / me=umh / subme=11 / psy=1 / fade_compensate=0.00 / psy_rd=1.00:0.15 / mixed_ref=1 / me_range=32 / chroma_me=1 / trellis=2 / 8x8dct=1 / cqm=0 / deadzone=21,11 / fast_pskip=0 / chroma_qp_offset=-3 / threads=6 / lookahead_threads=1 / sliced_threads=0 / nr=0 / decimate=0 / interlaced=0 / bluray_compat=0 / constrained_intra=0 / fgo=0 / bframes=8 / b_pyramid=2 / b_adapt=2 / b_bias=0 / direct=3 / weightb=1 / open_gop=0 / weightp=2 / keyint=240 / keyint_min=23 / scenecut=40 / intra_refresh=0 / rc=2pass / mbtree=0 / bitrate=3500 / ratetol=1.0 / qcomp=0.60 / qpmin=0:0:0 / qpmax=69:69:69 / qpstep=4 / cplxblur=20.0 / qblur=0.5 / ip_ratio=1.40 / pb_ratio=1.30 / aq=1:1.00 / aq-sensitivity=10.00 / aq-factor=1.00:1.00:1.00 / aq2=0 / aq3=0
Язык : English
Default : Да
Forced : Нет

Аудио #1
Идентификатор : 2
Формат : AC-3
Формат/Информация : Audio Coding 3
Расширение режима : CM (complete main)
Параметр Endianness формата : Big
Идентификатор кодека : A_AC3
Продолжительность : 1 ч. 19 м.
Вид битрейта : Постоянный
Битрейт : 448 Кбит/сек
Каналы : 6 каналов
Расположение каналов : Front: L C R, Side: L R, LFE
Частота : 48,0 КГц
Битовая глубина : 16 бит
Метод сжатия : С потерями
Размер потока : 255 Мбайт (9%)
Заголовок : TRACK_01_DUB_RUS
Язык : Russian
Default : Да
Forced : Да

Аудио #2
Идентификатор : 3
Формат : AC-3
Формат/Информация : Audio Coding 3
Расширение режима : CM (complete main)
Параметр Endianness формата : Big
Идентификатор кодека : A_AC3
Продолжительность : 1 ч. 19 м.
Вид битрейта : Постоянный
Битрейт : 448 Кбит/сек
Каналы : 6 каналов
Расположение каналов : Front: L C R, Side: L R, LFE
Частота : 48,0 КГц
Битовая глубина : 16 бит
Метод сжатия : С потерями
Размер потока : 255 Мбайт (9%)
Заголовок : TRACK_02_MVO_RUS
Язык : Russian
Default : Нет
Forced : Нет

Аудио #3
Идентификатор : 4
Формат : AC-3
Формат/Информация : Audio Coding 3
Расширение режима : CM (complete main)
Параметр Endianness формата : Big
Идентификатор кодека : A_AC3
Продолжительность : 1 ч. 19 м.
Вид битрейта : Постоянный
Битрейт : 192 Кбит/сек
Каналы : 2 канала
Расположение каналов : Front: L R
Частота : 48,0 КГц
Битовая глубина : 16 бит
Метод сжатия : С потерями
Размер потока : 109 Мбайт (4%)
Заголовок : TRACK_03_DVO_RUS
Язык : Russian
Default : Нет
Forced : Нет

Аудио #4
Идентификатор : 5
Формат : AC-3
Формат/Информация : Audio Coding 3
Расширение режима : CM (complete main)
Параметр Endianness формата : Big
Идентификатор кодека : A_AC3
Продолжительность : 1 ч. 19 м.
Вид битрейта : Постоянный
Битрейт : 448 Кбит/сек
Каналы : 6 каналов
Расположение каналов : Front: L C R, Side: L R, LFE
Частота : 48,0 КГц
Битовая глубина : 16 бит
Метод сжатия : С потерями
Размер потока : 255 Мбайт (9%)
Заголовок : TRACK_04_ORIGINAL_ENG
Язык : English
Default : Нет
Forced : Нет

Текст #1
Идентификатор : 6
Формат : UTF-8
Идентификатор кодека : S_TEXT/UTF8
Идентификатор кодека/Информация : UTF-8 Plain Text
Заголовок : TEXT_01_SUB_RUS
Язык : Russian
Default : Нет
Forced : Нет

Текст #2
Идентификатор : 7
Формат : UTF-8
Идентификатор кодека : S_TEXT/UTF8
Идентификатор кодека/Информация : UTF-8 Plain Text
Заголовок : TEXT_02_SUB_ENG
Язык : English
Default : Нет
Forced : Нет

Меню
00:00:00.000 : en:00:00:00.000
00:04:34.566 : en:00:04:34.566
00:11:01.494 : en:00:11:01.494
00:14:16.647 : en:00:14:16.647
00:22:10.746 : en:00:22:10.746
00:29:56.670 : en:00:29:56.670
00:34:46.126 : en:00:34:46.126
00:37:50.310 : en:00:37:50.310
00:42:10.319 : en:00:42:10.319
00:47:23.674 : en:00:47:23.674
00:51:55.738 : en:00:51:55.738
00:57:45.128 : en:00:57:45.128
01:04:59.604 : en:01:04:59.604
01:10:58.087 : en:01:10:58.087
01:14:34.428 : en:01:14:34.428
01:17:33.315 : en:01:17:33.315

...last pass...

x264.exe: --pass 2 --bitrate 3500 --preset slow --profile high --level 4.1 --ref 9 --deblock -2:-2 --merange 32 --bframes 8 --trellis 2 --no-fast-pskip --no-dct-decimate --psy-rd 1.00:0.15 --partitions all --subme 11 --no-mbtree --keyint 240 --sar 1:1 --stats "C:1Films CРелизыOpen Water 200311111.log" --output "C:1Films CРелизыOpen Water 200311111.mkv" "C:Temp429.avs"

avs [info]: 1024x554p 1:1 @ 24000/1001 fps (cfr)
avs [info]: color matrix: undef
x264 [info]: using SAR=1/1
x264 [info]: using cpu capabilities: MMX2 SSE2Fast SSSE3 SSE4.2 AVX
x264 [info]: profile High, level 4.1
x264 [info]: cabac=1 ref=9 deblock=1:-2:-2 analyse=0x3:0x133 me=umh subme=11 psy=1 fade_compensate=0.00 psy_rd=1.00:0.15 mixed_ref=1 me_range=32 chroma_me=1 trellis=2 8x8dct=1 cqm=0 deadzone=21,11 fast_pskip=0 chroma_qp_offset=-3 threads=6 lookahead_threads=1 sliced_threads=0 nr=0 decimate=0 interlaced=0 bluray_compat=0 constrained_intra=0 fgo=0 bframes=8 b_pyramid=2 b_adapt=2 b_bias=0 direct=3 weightb=1 open_gop=0 weightp=2 keyint=240 keyint_min=23 scenecut=40 intra_refresh=0 rc=2pass mbtree=0 bitrate=3500 ratetol=1.0 qcomp=0.60 qpmin=0:0:0 qpmax=69:69:69 qpstep=4 cplxblur=20.0 qblur=0.5 ip_ratio=1.40 pb_ratio=1.30 aq=1:1.00 aq-sensitivity=10.00 aq-factor=1.00:1.00:1.00 aq2=0 aq3=0
x264 [info]: started at Fri Aug 15 11:15:00 2014
x264 [info]: frame I:573 Avg QP:18.84 size: 41762
x264 [info]: frame P:31436 Avg QP:21.89 size: 24430
x264 [info]: frame B:82682 Avg QP:23.80 size: 15725
x264 [info]: consecutive B-frames: 2.9% 7.8% 5.2% 65.9% 4.6% 8.0% 1.4% 1.8% 2.5%
x264 [info]: mb I I16..4: 8.6% 82.3% 9.2%
x264 [info]: mb P I16..4: 3.7% 47.8% 3.4% P16..4: 20.0% 17.5% 3.0% 0.2% 0.0% skip: 4.4%
x264 [info]: mb B I16..4: 1.0% 16.8% 0.8% B16..8: 28.9% 21.0% 3.3% direct: 9.9% skip:18.4% L0:45.1% L1:42.2% BI:12.6%
x264 [info]: 8x8 transform intra:88.5% inter:80.6%
x264 [info]: direct mvs spatial:96.8% temporal:3.2%
x264 [info]: coded y,uvDC,uvAC intra: 87.9% 56.4% 14.7% inter: 41.9% 33.4% 3.9%
x264 [info]: i16 v,h,dc,p: 8% 24% 2% 66%
x264 [info]: i8 v,h,dc,ddl,ddr,vr,hd,vl,hu: 4% 21% 3% 7% 10% 8% 18% 9% 20%
x264 [info]: i4 v,h,dc,ddl,ddr,vr,hd,vl,hu: 6% 24% 4% 5% 10% 9% 18% 7% 17%
x264 [info]: i8c dc,h,v,p: 19% 44% 15% 22%
x264 [info]: Weighted P-Frames: Y:28.6% UV:15.8%
x264 [info]: ref P L0: 41.4% 8.1% 20.6% 8.6% 6.4% 4.7% 4.0% 2.7% 2.6% 0.7% 0.1%
x264 [info]: ref B L0: 76.7% 10.2% 5.1% 2.8% 2.1% 1.7% 1.1% 0.5%
x264 [info]: ref B L1: 95.3% 4.7%
x264 [info]: kb/s:3498.78

encoded 114691 frames, 6.585 fps, 3498.78 kb/s, 1995.2 MB



Релиз от: | Автор рипа:
загрузка...
Правила, инструкции, FAQ!!!
Торрент  Добавлен [07 дек 2014, 17:34] Скачать торрент
Скачать торрент
[ Размер 14.71 КБ / Просмотров 4 ]

Статус
Проверен 
 
Размер  2.81 ГБ
Приватный: Нет (DHT включён)
.torrent скачан  628
Как залить торрент? | Как скачать Torrent? | Как смотреть и слушать онлайн?  


     Отправить личное сообщение
   
Страница 1 из 1
Показать сообщения за:  Поле сортировки  
Начать новую тему Ответить на тему

   Похожие торренты   Автор   Ответы   Просмотры   Последнее сообщение 
В этой теме нет новых непрочитанных сообщений. Скачать торрент Проверен Открытое море / Open Water (2003) HDRip | D

в форуме Триллеры, Размер: 1.45 ГБ, Здоровье: 100%

Гость

0
103|13

53
2120

07 дек 2014, 17:32

Гость Перейти к последнему сообщению

В этой теме нет новых непрочитанных сообщений. Скачать торрент Проверен Дрейф / Open Water 2: Adrift (2006) BDRip 720p | D,P2

в форуме 720p | 1080p, Размер: 7.91 ГБ, Здоровье: 100%

Гость

0
93|86

34
127

08 апр 2015, 22:54

Гость Перейти к последнему сообщению

В этой теме нет новых непрочитанных сообщений. Скачать торрент Дрейф / Открытые воды 2: Дрейф / Open Water 2: Adrift (Ганс Хорн / Hans Horn) [2006, триллер, драма, BDRip] Dub

в форуме Триллеры, Размер: 1.45 ГБ, Здоровье: 0%

Anonymous

0
0|0

38
0

16 апр 2014, 07:51

Anonymous Перейти к последнему сообщению

В этой теме нет новых непрочитанных сообщений. Скачать торрент Проверен Дрейф / Open Water 2: Adrift (2006) HDRip | D

в форуме Триллеры, Размер: 1.45 ГБ, Здоровье: 100%

Anonymous

0
59|8

67
88

08 апр 2015, 22:51

Anonymous Перейти к последнему сообщению

В этой теме нет новых непрочитанных сообщений. Скачать торрент Открытый простор / Open Range (2003) BDRip 1080p

в форуме 720p | 1080p, Размер: 11.09 ГБ, Здоровье: 0%

Anonymous

0
0|0

41
0

17 мар 2014, 10:32

Anonymous Перейти к последнему сообщению



Сейчас этот форум просматривают: нет зарегистрированных пользователей и гости: 1


Вы не можете начинать темы
Вы не можете отвечать на сообщения
Вы не можете редактировать свои сообщения
Вы не можете удалять свои сообщения
Вы не можете добавлять вложения

Перейти:  

!ВНИМАНИЕ!
 Ресурс не предоставляет электронные версии произведений, а занимается лишь коллекционированием и каталогизацией ссылок, присылаемых и публикуемых на форуме нашими читателями. Если вы являетесь правообладателем какого-либо представленного материала и не желаете чтобы ссылка на него находилась в нашем каталоге, свяжитесь с нами и мы незамедлительно удалим её. Файлы для обмена на трекере предоставлены пользователями сайта, и администрация не несёт ответственности за их содержание. Просьба не заливать файлы, защищенные авторскими правами, а также файлы нелегального содержания!