На всех торрентах на трекере установлена скидка на скачивание в размере 100 процентов(а).
 Возможность скачивания торрента НЕ зависит от ограничений при низком ратио, низком аплоаде, требуемом ратио или требуемом аплоаде.


Начать новую тему Ответить на тему
Статистика раздачи
Размер: 2.5 ГБ | Добавлен: 06 дек 2014, 18:50 | Скачали: 33
Сидеров: 46  [0 байт/сек]    Личеров: 77  [0 байт/сек]
Пред. тема | След. тема 

Автор
Сообщение

СообщениеДобавлено: 06 дек 2014, 18:50 

Название: Бункер (Тёмная сторона)
Оригинальное название: La cara oculta (Bunker)
Год выхода: 2011
Жанр: Психологический триллер, драма, детектив
Режиссер: Андрес Баиз
В ролях: Клара Лаго, Ким Гутьеррес, Мартина Гарсия, Мария Соледад Родригес, Хосе Луис Гарсиа, Марсела Гардеасабаль, Умберто Дорадо, Хулио Пачон, Хуан Альфонсо Баптиста, Марсела Бенхумеа, Александра Стюарт, Мозад

О фильме: Официантка Фабиана знакомится с одним из случайных посетителей, переживающим сложный период в жизни. Между ними вспыхивает страсть. Для девушки все кажется идеальным: ее любимый работает дирижером оркестра филармонии в Боготе и владеет огромным особняком. Однако, вскоре появляются непредвиденные сложности. Полиция расследует таинственное исчезновения бывшей невесты и подруги дирижера, а сама девушка начинает чувствовать, что в доме происходит нечто странное.



Страна: Испания, Колумбия
Студия: Avalon, Cactus Flower, Dynamo, Fox International Productions (FIP)
Продолжительность: 01:36:31
Перевод: Профессиональный многоголосый, любительский двухголосый, любительский одноголосый


Кодек: MPEG-4 AVC
Качество: BDRip-AVC
Видео: 2100 Кбит/с, 1024х434, 24.000 кадр/с
Звук:
Аудио #1: Русский (AC3, 6 ch, 448 Кбит/с) / Профессиональный многоголосый (R5)
Аудио #2: Русский (AC3, 6 ch, 448 Кбит/с) / Любительскиий двухголосый (DeadSno & den904 по субтитрам na_zare)
Аудио #3: Русский (AC3, 3 ch, 256 Кбит/с) / Любительскиий одноголосый (агент смит по субтитрам na_zare)
Аудио #4: Испанский (AC3, 6 ch, 448 Кбит/с)
Субтитры: Русские (na_zare), английские

Семпл

Общее
Уникальный идентификатор : 232207182399378900955742397141695004408 (0xAEB17A01B3CADDAA85F26005478AFEF8)
Полное имя : H:1FilmsHРелизыTjomnaja.storona.2011.x264.BDRip.AVC.MediaClub.mkv
Формат : Matroska
Версия формата : Version 4 / Version 2
Размер файла : 2,50 Гбайт
Продолжительность : 1 ч. 36 м.
Общий поток : 3703 Кбит/сек
Название фильма : -= MediaClub =- rip by Lefevr
Дата кодирования : UTC 2014-11-28 16:15:34
Программа кодирования : mkvmerge v6.1.0 ('Old Devil') built on Mar 4 2013 09:10:42
Библиотека кодирования : libebml v1.3.0 + libmatroska v1.4.0

Видео
Идентификатор : 1
Формат : AVC
Формат/Информация : Advanced Video Codec
Профиль формата : High@L4.1
Параметр CABAC формата : Да
Параметр ReFrames формата : 9 кадров
Идентификатор кодека : V_MPEG4/ISO/AVC
Продолжительность : 1 ч. 36 м.
Битрейт : 2100 Кбит/сек
Ширина : 1024 пикселя
Высота : 434 пикселя
Соотношение сторон : 2,35:1
Режим частоты кадров : Постоянный
Частота кадров : 24,000 кадра/сек
Цветовое пространство : YUV
Субдискретизация насыщенности : 4:2:0
Битовая глубина : 8 бит
Тип развёртки : Прогрессивная
Бит/(Пиксели*Кадры) : 0.197
Размер потока : 1,37 Гбайт (55%)
Заголовок : Tjomnaja.storona.2011.x264.BDRip.AVC.MediaClub
Библиотека кодирования : x264 core 130 r2273 b3065e6
Настройки программы : cabac=1 / ref=9 / deblock=1:-2:-2 / analyse=0x3:0x133 / me=umh / subme=11 / psy=1 / psy_rd=1.00:0.15 / mixed_ref=1 / me_range=32 / chroma_me=1 / trellis=2 / 8x8dct=1 / cqm=0 / deadzone=21,11 / fast_pskip=0 / chroma_qp_offset=-3 / threads=6 / lookahead_threads=1 / sliced_threads=0 / nr=0 / decimate=0 / interlaced=0 / bluray_compat=0 / constrained_intra=0 / bframes=8 / b_pyramid=2 / b_adapt=2 / b_bias=0 / direct=3 / weightb=1 / open_gop=0 / weightp=2 / keyint=240 / keyint_min=23 / scenecut=40 / intra_refresh=0 / rc=2pass / mbtree=0 / bitrate=2100 / ratetol=1.0 / qcomp=0.60 / qpmin=0 / qpmax=69 / qpstep=4 / cplxblur=20.0 / qblur=0.5 / ip_ratio=1.40 / pb_ratio=1.30 / aq=1:1.00
Язык : Spanish
Default : Да
Forced : Да

Аудио #1
Идентификатор : 2
Формат : AC-3
Формат/Информация : Audio Coding 3
Расширение режима : CM (complete main)
Параметр Endianness формата : Big
Идентификатор кодека : A_AC3
Продолжительность : 1 ч. 36 м.
Вид битрейта : Постоянный
Битрейт : 448 Кбит/сек
Каналы : 6 каналов
Расположение каналов : Front: L C R, Side: L R, LFE
Частота : 48,0 КГц
Битовая глубина : 16 бит
Метод сжатия : С потерями
Размер потока : 309 Мбайт (12%)
Заголовок : TRACK_01_MVO_RUS_R5
Язык : Russian
Default : Да
Forced : Да

Аудио #2
Идентификатор : 3
Формат : AC-3
Формат/Информация : Audio Coding 3
Расширение режима : CM (complete main)
Параметр Endianness формата : Big
Идентификатор кодека : A_AC3
Продолжительность : 1 ч. 36 м.
Вид битрейта : Постоянный
Битрейт : 448 Кбит/сек
Каналы : 6 каналов
Расположение каналов : Front: L C R, Side: L R, LFE
Частота : 48,0 КГц
Битовая глубина : 16 бит
Метод сжатия : С потерями
Размер потока : 309 Мбайт (12%)
Заголовок : TRACK_02_VO_RUS_den904&DeadSno
Язык : Russian
Default : Нет
Forced : Нет

Аудио #3
Идентификатор : 4
Формат : AC-3
Формат/Информация : Audio Coding 3
Расширение режима : CM (complete main)
Параметр Endianness формата : Big
Идентификатор кодека : A_AC3
Продолжительность : 1 ч. 36 м.
Вид битрейта : Постоянный
Битрейт : 256 Кбит/сек
Каналы : 3 канала
Расположение каналов : Front: L C R
Частота : 48,0 КГц
Битовая глубина : 16 бит
Метод сжатия : С потерями
Размер потока : 177 Мбайт (7%)
Заголовок : TRACK_03_VO_RUS_агент смит
Язык : Russian
Default : Нет
Forced : Нет

Аудио #4
Идентификатор : 5
Формат : AC-3
Формат/Информация : Audio Coding 3
Расширение режима : CM (complete main)
Параметр Endianness формата : Big
Идентификатор кодека : A_AC3
Продолжительность : 1 ч. 36 м.
Вид битрейта : Постоянный
Битрейт : 448 Кбит/сек
Каналы : 6 каналов
Расположение каналов : Front: L C R, Side: L R, LFE
Частота : 48,0 КГц
Битовая глубина : 16 бит
Метод сжатия : С потерями
Размер потока : 309 Мбайт (12%)
Заголовок : TRACK_04_ORIGINAL_SPA
Язык : Spanish
Default : Нет
Forced : Нет

Текст #1
Идентификатор : 6
Формат : UTF-8
Идентификатор кодека : S_TEXT/UTF8
Идентификатор кодека/Информация : UTF-8 Plain Text
Заголовок : TEXT_01_SUB_RUS.srt
Язык : Russian
Default : Нет
Forced : Нет

Текст #2
Идентификатор : 7
Формат : UTF-8
Идентификатор кодека : S_TEXT/UTF8
Идентификатор кодека/Информация : UTF-8 Plain Text
Заголовок : TEXT_02_SUB_ENG_SDH.srt
Язык : English
Default : Нет
Forced : Нет

Меню
00:00:00.000 : en:00:00:00.000
00:05:00.000 : en:00:05:00.000
00:10:00.000 : en:00:10:00.000
00:15:00.000 : en:00:15:00.000
00:20:00.000 : en:00:20:00.000
00:25:00.000 : en:00:25:00.000
00:30:00.000 : en:00:30:00.000
00:35:00.000 : en:00:35:00.000
00:40:00.000 : en:00:40:00.000
00:45:00.000 : en:00:45:00.000
00:50:00.000 : en:00:50:00.000
00:55:00.000 : en:00:55:00.000
01:00:00.000 : en:01:00:00.000
01:05:00.000 : en:01:05:00.000
01:10:00.000 : en:01:10:00.000
01:15:00.000 : en:01:15:00.000
01:20:00.000 : en:01:20:00.000
01:25:00.000 : en:01:25:00.000
01:30:00.000 : en:01:30:00.000
01:35:00.000 : en:01:35:00.000

...last pass...

x264.exe: --pass 2 --bitrate 2100 --preset veryslow --profile high --level 4.1 --ref 9 --deblock -2:-2 --merange 32 --no-fast-pskip --no-dct-decimate --psy-rd 1.00:0.15 --subme 11 --no-mbtree --keyint 240 --sar 1:1 --stats "E:1Films EРелизыTjomnaja storona_Bunker11111.log" --output "E:1Films EРелизыTjomnaja storona_Bunker11111.mkv" "F:Temp\0034.avs"

avs [info]: 1024x434p 1:1 @ 10000000/416667 fps (cfr)
x264 [info]: using SAR=1/1
x264 [info]: using cpu capabilities: MMX2 SSE2Fast SSSE3 SSE4.2 AVX
x264 [info]: profile High, level 4.1

x264 [info]: frame I:1144 Avg QP:15.61 size: 57806
x264 [info]: frame P:29521 Avg QP:18.37 size: 22067
x264 [info]: frame B:108319 Avg QP:19.97 size: 7410
x264 [info]: consecutive B-frames: 2.4% 3.0% 7.0% 13.3% 17.1% 45.3% 5.7% 1.7% 4.4%
x264 [info]: mb I I16..4: 15.1% 66.9% 18.0%
x264 [info]: mb P I16..4: 0.9% 11.0% 1.7% P16..4: 32.2% 39.4% 12.3% 1.4% 0.1% skip: 1.1%
x264 [info]: mb B I16..4: 0.1% 0.9% 0.2% B16..8: 41.0% 21.6% 3.1% direct: 4.7% skip:28.3% L0:44.9% L1:46.6% BI: 8.5%
x264 [info]: 8x8 transform intra:77.1% inter:58.8%
x264 [info]: direct mvs spatial:98.2% temporal:1.8%
x264 [info]: coded y,uvDC,uvAC intra: 85.2% 76.6% 54.4% inter: 27.4% 20.9% 7.5%
x264 [info]: i16 v,h,dc,p: 27% 9% 17% 47%
x264 [info]: i8 v,h,dc,ddl,ddr,vr,hd,vl,hu: 15% 7% 11% 9% 12% 12% 11% 12% 11%
x264 [info]: i4 v,h,dc,ddl,ddr,vr,hd,vl,hu: 40% 5% 6% 6% 9% 10% 8% 8% 7%
x264 [info]: i8c dc,h,v,p: 37% 27% 21% 16%
x264 [info]: Weighted P-Frames: Y:7.6% UV:4.1%
x264 [info]: ref P L0: 41.4% 8.2% 19.5% 7.8% 7.1% 5.0% 4.8% 2.7% 2.8% 0.7% 0.0%
x264 [info]: ref B L0: 66.0% 14.3% 7.8% 4.3% 3.1% 2.6% 1.4% 0.5%
x264 [info]: ref B L1: 91.2% 8.8%
x264 [info]: kb/s:2100.09



Релиз от: | Автор рипа:
загрузка...
Правила, инструкции, FAQ!!!
Торрент  Добавлен [06 дек 2014, 18:50] Скачать торрент
Скачать торрент
[ Размер 13.21 КБ / Просмотров 8 ]

Статус
Проверен 
 
Размер  2.5 ГБ
Приватный: Нет (DHT включён)
.torrent скачан  33
Как залить торрент? | Как скачать Torrent? | Как смотреть и слушать онлайн?  


     Отправить личное сообщение
   
Страница 1 из 1
Показать сообщения за:  Поле сортировки  
Начать новую тему Ответить на тему

   Похожие торренты   Автор   Ответы   Просмотры   Последнее сообщение 
В этой теме нет новых непрочитанных сообщений. Скачать торрент Проверен (Heavy Metal) Dark Elf - La Cara Oculta - 2011, MP3, 320 kbps

в форуме Heavy, Power, Progressive (Metal), Размер: 113.75 МБ, Здоровье: 0%

Anonymous

0
0|0

0
0

09 окт 2016, 12:33

Anonymous Перейти к последнему сообщению

В этой теме нет новых непрочитанных сообщений. Скачать торрент Проверен Мусаниф Сергей - Темная сторона медали [Геннадий Коршунов (ЛИ), 2011, Фэнтези, 160]

в форуме Аудиокниги (AAC, ALAC), Размер: 964.48 МБ, Здоровье: 0%

Anonymous

0
0|0

0
0

28 авг 2016, 18:22

Anonymous Перейти к последнему сообщению

В этой теме нет новых непрочитанных сообщений. Скачать торрент Проверен Пинк Флойд: Тёмная Сторона Луны / Pink Floyd: The Making Of The Dark Side Of The Moon (2003) BDRip 1080p

в форуме Концерты (HD-Video), Размер: 3.41 ГБ, Здоровье: 100%

Anonymous

0
116|12

179
36

22 авг 2014, 22:15

Anonymous Перейти к последнему сообщению

В этой теме нет новых непрочитанных сообщений. Скачать торрент Проверен Мусаниф Сергей - Темная сторона медали [Геннадий Коршунов,Екатерина Мишина, (ЛИ), 2011 г., 160 kbps, MP3]

в форуме Российская фантастика, фэнтези, мистика, ужасы, фанфики, Размер: 998.88 МБ, Здоровье: 0%

Anonymous

0
0|0

0
0

10 сен 2016, 18:45

Anonymous Перейти к последнему сообщению

В этой теме нет новых непрочитанных сообщений. Скачать торрент Проверен Мусаниф Сергей - Темная сторона медали [Геннадий Коршунов, Екатерина Мишина, 2011 г., 64 kbps, MP3]

в форуме Российская фантастика, фэнтези, мистика, ужасы, фанфики, Размер: 393.24 МБ, Здоровье: 0%

Anonymous

0
0|0

0
0

10 сен 2016, 14:21

Anonymous Перейти к последнему сообщению



Сейчас этот форум просматривают: нет зарегистрированных пользователей и гости: 3


Вы не можете начинать темы
Вы не можете отвечать на сообщения
Вы не можете редактировать свои сообщения
Вы не можете удалять свои сообщения
Вы не можете добавлять вложения

Перейти:  

!ВНИМАНИЕ!
 Ресурс не предоставляет электронные версии произведений, а занимается лишь коллекционированием и каталогизацией ссылок, присылаемых и публикуемых на форуме нашими читателями. Если вы являетесь правообладателем какого-либо представленного материала и не желаете чтобы ссылка на него находилась в нашем каталоге, свяжитесь с нами и мы незамедлительно удалим её. Файлы для обмена на трекере предоставлены пользователями сайта, и администрация не несёт ответственности за их содержание. Просьба не заливать файлы, защищенные авторскими правами, а также файлы нелегального содержания!