На всех торрентах на трекере установлена скидка на скачивание в размере 100 процентов(а).
 Возможность скачивания торрента НЕ зависит от ограничений при низком ратио, низком аплоаде, требуемом ратио или требуемом аплоаде.


Начать новую тему Ответить на тему
Статистика раздачи
Размер: 1.46 ГБ | Добавлен: 15 ноя 2014, 22:53 | Скачали: 44
Сидеров: 30  [0 байт/сек]    Личеров: 70  [0 байт/сек]
Пред. тема | След. тема 

Автор
Сообщение

СообщениеДобавлено: 15 ноя 2014, 22:53 

Страна: Мексика / Canana, Videocine S.A. de C.V.

Жанр: триллер, ужасы
Год выпуска: 2012
Продолжительность: 01:26:49

Перевод: Профессиональный (многоголосый закадровый)
Cубтитры: нет
Оригинальная аудиодорожка: нет

Режиссер: Макинов / Makinov

В ролях: Винесса Шоу, Эбон Мосс-Бакрак, Даниэль Хименес Качо, Херардо Тарасена, Алехандро Альварес

Описание: Молодая супружеская пара, Бет и Фрэнсис, находясь в отпуске, отправляются на красивый, но очень отдаленный остров. Бет беременна, и молодожены хотят насладиться последним своим совместным отдыхом перед рождением ребенка. По прибытии они замечают, что, несмотря на огромное количество местных детей, взрослые здесь практически отсутствуют. Первоначально они списывают этот факт на недавно прошедший фестиваль, но очень скоро понимают, что есть другое, более зловещее всему объяснение. И теперь они оба должны противостоять террору и принимать опасные и сложные решения, чтобы попытаться убраться с этого острова живыми.



Качество: BDRip / DVD5 R5 - лицензионный диск от CD Land + Come Out and Play 2012 BDRemux 1080p HYPERHD.mkv
Формат: AVI

Видео: 720x320 (2.24:1), XViD, 1945 kbps / 23,976 fps / bit/pix=0.352
Аудио: Russian: 48 kHz, AC3, 3/2 (L,C,R,l,r) + LFE ch, 448.00 kbps constant

Раздача от:
General
Format : AVI
Format/Info : Audio Video Interleave
File size : 1.46 GiB
Duration : 1h 26mn
Overall bit rate : 2 401 Kbps
Writing application : VirtualDubModRus 1.5.10.2 (build 2542/release)
Writing library : VirtualDubMod build 2542/release

Video
ID : 0
Format : MPEG-4 Visual
Format profile : Advanced Simple@L5
Format settings, BVOP : 1
Format settings, QPel : No
Format settings, GMC : No warppoints
Format settings, Matrix : Custom
Codec ID : XVID
Codec ID/Hint : XviD
Duration : 1h 26mn
Bit rate : 1 943 Kbps
Width : 720 pixels
Height : 320 pixels
Display aspect ratio : 2.25:1
Frame rate : 23.976 fps
Color space : YUV
Chroma subsampling : 4:2:0
Bit depth : 8 bits
Scan type : Progressive
Compression mode : Lossy
Bits/(Pixel*Frame) : 0.352
Stream size : 1.18 GiB (81%)
Writing library : XviD 73

Audio
ID : 1
Format : AC-3
Format/Info : Audio Coding 3
Mode extension : CM (complete main)
Format settings, Endianness : Big
Codec ID : 2000
Duration : 1h 26mn
Bit rate mode : Constant
Bit rate : 448 Kbps
Channel(s) : 6 channels
Channel positions : Front: L C R, Side: L R, LFE
Sampling rate : 48.0 KHz
Bit depth : 16 bits
Compression mode : Lossy
Stream size : 278 MiB (19%)
Alignment : Split accross interleaves
Interleave, duration : 42 ms (1.00 video frame)
Interleave, preload duration : 500 ms


загрузка...
Правила, инструкции, FAQ!!!
Торрент  Добавлен [15 ноя 2014, 22:53] Скачать торрент
Скачать торрент
[ Размер 15.25 КБ / Просмотров 6 ]

Статус
Проверен 
 
Размер  1.46 ГБ
Приватный: Нет (DHT включён)
.torrent скачан  44
Как залить торрент? | Как скачать Torrent? | Как смотреть и слушать онлайн?  


     Отправить личное сообщение
   
Страница 1 из 1
Показать сообщения за:  Поле сортировки  
Начать новую тему Ответить на тему

   Похожие торренты   Автор   Ответы   Просмотры   Последнее сообщение 
В этой теме нет новых непрочитанных сообщений. Скачать торрент Проверен Андрей Романов, Максим Есаулов | Недетские игры [2012] [FB2]

в форуме Детективы и Боевики, Размер: 891.88 КБ, Здоровье: 66%

Anonymous

0
2|3

68
0

20 сен 2014, 21:09

Anonymous Перейти к последнему сообщению

В этой теме нет новых непрочитанных сообщений. Скачать торрент Проверен Дэвид Бишоф, Уильям Котцвинкл, Мишель Гримо - Недетские игры. Сборник научно-фантастических произведений [Мурашко Игорь, 2016 г., 128 kbps, MP3]

в форуме Зарубежная фантастика, фэнтези, мистика, ужасы, Размер: 929.78 МБ, Здоровье: 100%

Anonymous

0
9|3

2
0

11 сен 2016, 11:41

Anonymous Перейти к последнему сообщению

В этой теме нет новых непрочитанных сообщений. Скачать торрент Игры страсти / Passion Play (Митч Глейзер / Mitch Glazer) [2010, США, Триллер, драма, BDRip]

в форуме Триллеры, Размер: 1.46 ГБ, Здоровье: 0%

Anonymous

0
0|0

53
0

14 апр 2014, 09:27

Anonymous Перейти к последнему сообщению

В этой теме нет новых непрочитанных сообщений. Скачать торрент Проверен Голодные игры. Дилогия / The Hunger Games. Dilogy (2012-2013) BDRip 720p

в форуме Дилогии, Размер: 22 ГБ, Здоровье: 6%

Anonymous

0
4|58

293
3

11 дек 2014, 21:53

Anonymous Перейти к последнему сообщению

В этой теме нет новых непрочитанных сообщений. Скачать торрент Проверен LCD Soundsystem ‎- Shut Up And Play The Hits Part 1 [2012, Electronic, Indie Rock, BDRip 720p]

в форуме Концерты (HD-Video), Размер: 4.37 ГБ, Здоровье: 100%

Гость

0
10|3

14
0

26 апр 2015, 22:47

Гость Перейти к последнему сообщению



Сейчас этот форум просматривают: нет зарегистрированных пользователей и гости: 2


Вы не можете начинать темы
Вы не можете отвечать на сообщения
Вы не можете редактировать свои сообщения
Вы не можете удалять свои сообщения
Вы не можете добавлять вложения

Перейти:  

!ВНИМАНИЕ!
 Ресурс не предоставляет электронные версии произведений, а занимается лишь коллекционированием и каталогизацией ссылок, присылаемых и публикуемых на форуме нашими читателями. Если вы являетесь правообладателем какого-либо представленного материала и не желаете чтобы ссылка на него находилась в нашем каталоге, свяжитесь с нами и мы незамедлительно удалим её. Файлы для обмена на трекере предоставлены пользователями сайта, и администрация не несёт ответственности за их содержание. Просьба не заливать файлы, защищенные авторскими правами, а также файлы нелегального содержания!