На всех торрентах на трекере установлена скидка на скачивание в размере 100 процентов(а).
 Возможность скачивания торрента НЕ зависит от ограничений при низком ратио, низком аплоаде, требуемом ратио или требуемом аплоаде.


Начать новую тему Ответить на тему
Статистика раздачи
Размер: 1.54 ГБ | Добавлен: 29 мар 2013, 20:47 | Скачали: 4
Сидеров: 324  [0 байт/сек]    Личеров: 0  [0 байт/сек]
Пред. тема | След. тема 

Автор
Сообщение

СообщениеДобавлено: 29 мар 2013, 20:47 

«Одна доза изменит твою жизнь»



Страна: США
Студия: Di Bonaventura Pictures, Endgame Entertainment
Жанр: триллер, драма, криминал
Год выпуска: 2013
Продолжительность: 01:41:33

Перевод: Профессиональный (дублированный)
Оригинальная аудиодорожка: нет
Cубтитры: нет

Режиссер: Стивен Содерберг / Steven Soderbergh

В фильме снимались: Джуд Лоу, Руни Мара, Кэтрин Зета-Джонс, Ченнинг Татум, Кармен Пелаес, Марин Айрлэнд, Полли Дрэйпер, Аральдо Альварес, Джеймс Мартинез, Владимир Версейл...

Вкратце: Жизнь главной героини Эмили пошла под откос, когда её мужа посадили в тюрьму. Вначале она пыталась спастись от депрессии своими силами, горстями глотая успокоительное. После того, как стало понятно, что это не поможет, Эмили не оставалось другого выхода кроме отправления в психиатрическую лечебницу к добрым и заботливым людям в белых халатах.
Теперь главная героиня борется со своими внутренними демонами уже не одна — справиться с угнетённым состоянием ей помогают два лучших доктора клиники, а также экспериментальные препараты, обладающие довольно странными побочными эффектами. Не получится ли так, что все внутренние страхи Эмили вместо того, чтобы исчезнуть, вырвутся наружу?



Исходник: DVD5 R5
Качество: DVDRip
Формат: AVI

Видео: 720x384 (1.85:1), 25.000 fps, XviD ~ 1717 kbps avg, 0.248 bit/pixel
Аудио: 48 kHz, AC3 6 ch, 448 kbps, русский



Общее
Полное имя : Pobochnyi.effekt.2013.D.DVDRip[Youtracker]_by_avproh.avi
Формат : AVI
Формат/Информация : Audio Video Interleave
Размер файла : 1,54 Гбайт
Продолжительность : 1 ч. 41 м.
Общий поток : 2175 Кбит/сек
Программа кодирования : VirtualDubMod 1.5.10.3 | http://www.virtualdub-fr.org || (build 2550/release)
Библиотека кодирования : VirtualDubMod build 2550/release

Видео
Идентификатор : 0
Формат : MPEG-4 Visual
Профиль формата : Advanced Simple@L5
Параметр BVOP формата : 1
Параметр QPel формата : Нет
Параметр GMC формата : Без точки перехода
Параметр матрицы формата : Выборочная
Идентификатор кодека : XVID
Идентификатор кодека/Подсказка : XviD
Продолжительность : 1 ч. 41 м.
Битрейт : 1717 Кбит/сек
Ширина : 720 пикселей
Высота : 384 пикселя
Соотношение сторон : 1,85:1
Частота кадров : 25,000 кадров/сек
Цветовое пространство : YUV
Субдискретизация насыщенности : 4:2:0
Битовая глубина : 8 бит
Тип развёртки : Прогрессивная
Метод сжатия : С потерями
Бит/(Пиксели*Кадры) : 0.248
Размер потока : 1,22 Гбайт (79%)
Библиотека кодирования : XviD 65

Аудио
Идентификатор : 1
Формат : AC-3
Формат/Информация : Audio Coding 3
Расширение режима : CM (complete main)
Параметр Endianness формата : Big
Идентификатор кодека : 2000
Продолжительность : 1 ч. 41 м.
Вид битрейта : Постоянный
Битрейт : 448 Кбит/сек
Каналы : 6 каналов
Расположение каналов : Front: L C R, Side: L R, LFE
Частота : 48,0 КГц
Битовая глубина : 16 бит
Метод сжатия : С потерями
Размер потока : 325 Мбайт (21%)
Выравнивание : Разделение по промежуткам
Продолжительность промежутка : 40 мс. (1,00 видеокадр)
Время предзагрузки промежутка : 500 мс.


загрузка...
Правила, инструкции, FAQ!!!
Торрент  Добавлен [29 мар 2013, 20:47] Скачать торрент
Скачать торрент
[ Размер 16.08 КБ / Просмотров 27 ]

Статус  
 
Размер  1.54 ГБ
Приватный: Нет (DHT включён)
.torrent скачан  4
Как залить торрент? | Как скачать Torrent? | Как смотреть и слушать онлайн?  


     Отправить личное сообщение
   
Страница 1 из 1
Показать сообщения за:  Поле сортировки  
Начать новую тему Ответить на тему

   Похожие торренты   Автор   Ответы   Просмотры   Последнее сообщение 
В этой теме нет новых непрочитанных сообщений. Скачать торрент Проверен Ливадный Андрей - Побочный эффект [Jurshilov, 2010, 320 kbps]

в форуме Российская фантастика, фэнтези, мистика, ужасы, фанфики, Размер: 66.45 МБ, Здоровье: 0%

Anonymous

0
0|0

2
0

10 сен 2016, 19:18

Anonymous Перейти к последнему сообщению

В этой теме нет новых непрочитанных сообщений. Скачать торрент Проверен Хоуки Реймонд - Побочный эффект [Терновский Евгений, 2015 г., 96 kbps, MP3]

в форуме Детектив и Боевики, Размер: 442.82 МБ, Здоровье: 100%

Anonymous

0
5|2

4
0

04 май 2016, 22:15

Anonymous Перейти к последнему сообщению

В этой теме нет новых непрочитанных сообщений. Скачать торрент Проверен Джими Хендрикс / All Is by My Side (2013) DVDRip | Лицензия

в форуме Драмы, Мелодрамы, Размер: 2.05 ГБ, Здоровье: 100%

Anonymous

0
327|230

73
414

18 окт 2014, 16:09

Anonymous Перейти к последнему сообщению

В этой теме нет новых непрочитанных сообщений. Скачать торрент Проверен [Digital Tutors] Photorealistic Camera Lens Effects in After Effects (After Effects CS6 + Knoll Light Factory 2.7.2) [08.04.2013, ENG]

в форуме Работа с видео, Размер: 2.32 ГБ, Здоровье: 0%

Anonymous

0
0|0

17
0

19 авг 2016, 22:56

Anonymous Перейти к последнему сообщению

В этой теме нет новых непрочитанных сообщений. Скачать торрент Проверен (Rhythm & Blues, Soul, Pop) Fantasia (Fantasia Barrino) - Side Effects of You - 2013, FLAC (tracks), lossless

в форуме Зарубежная музыка, Размер: 313.77 МБ, Здоровье: 100%

Anonymous

0
3|1

9
0

16 авг 2016, 20:57

Anonymous Перейти к последнему сообщению



Сейчас этот форум просматривают: нет зарегистрированных пользователей и гости: 1


Вы не можете начинать темы
Вы не можете отвечать на сообщения
Вы не можете редактировать свои сообщения
Вы не можете удалять свои сообщения
Вы не можете добавлять вложения

Перейти:  

!ВНИМАНИЕ!
 Ресурс не предоставляет электронные версии произведений, а занимается лишь коллекционированием и каталогизацией ссылок, присылаемых и публикуемых на форуме нашими читателями. Если вы являетесь правообладателем какого-либо представленного материала и не желаете чтобы ссылка на него находилась в нашем каталоге, свяжитесь с нами и мы незамедлительно удалим её. Файлы для обмена на трекере предоставлены пользователями сайта, и администрация не несёт ответственности за их содержание. Просьба не заливать файлы, защищенные авторскими правами, а также файлы нелегального содержания!