На всех торрентах на трекере установлена скидка на скачивание в размере 100 процентов(а).
 Возможность скачивания торрента НЕ зависит от ограничений при низком ратио, низком аплоаде, требуемом ратио или требуемом аплоаде.


Начать новую тему Ответить на тему
Статистика раздачи
Размер: 1.4 ГБ | Добавлен: 24 окт 2014, 20:34 | Скачали: 0
Сидеров: 60  [0 байт/сек]    Личеров: 30  [0 байт/сек]
Пред. тема | След. тема 

Автор
Сообщение

СообщениеДобавлено: 24 окт 2014, 20:34 

Год выпуска: 2010
Производство: США, 7th Rig
Жанр: Триллер, драма

Режиссер: Аллен Вульф
Актеры: Филип Уинчестер, Тим Драксл, Лэйси Чэберт, Эбигейл Спенсер, Келли Овертон, Эми Акино, Тони Хейл, Кевин Килнер, Эйдан Митчел, Майкл Бадалукко, Беллами Янг

Описание фильма:
Маркус просыпается на кладбище и не может понять, как он туда попал. В его голове множество вопросов: Где я был прошлой ночью? С кем? Маркус страдает парасомнией, редким расстройством сна, в результате которого во сне делает то, что не может вспомнить на следующий день. Его ситуация принимает ужасающий оборот, когда Маркус просыпается весь в крови и обнаруживает рядом с собой нож. Вскоре жену его лучшего друга находят мертвой, ее закололи ножом. Маркус в ужасе связывает эти два события. Возможно ли, что он убил ее во время своего сна, чтобы скрыть тайну, существовавшую между ними? Загадочные телефонные звонки заставляют Маркуса думать, что кто-то наблюдает за ним. Он исследует свои собственные ночные поступки, в отчаянии пытаясь понять, что происходит, когда он засыпает ночью. Его попытки узнать правду заканчиваются шокирующим открытием.

Перевод: Профессиональный многоголосый
Субтитры: Отсутствуют



Продолжительность: 01:40:21
Качество видео: HDRip

Видеокодек: XviD
Битрейт видео: ~1662 Кбит/с
Размер кадра: 720x400
Аудиокодек: AC3 6 ch
Битрейт аудио: 320 Кбит/с

Общее
Полное имя : C:\NNM\Опасные сны\Opasnye sny 2010 HDRip.avi
Формат : AVI
Формат/Информация : Audio Video Interleave
Размер файла : 1,40 Гбайт
Продолжительность : 1 ч. 40 м.
Общий поток : 1991 Кбит/сек
Программа кодирования : VirtualDubModRus 1.5.10.2 (build 2542/release)
Библиотека кодирования : VirtualDubMod build 2542/release

Видео
Идентификатор : 0
Формат : MPEG-4 Visual
Профиль формата : Advanced Simple@L5
Параметр BVOP формата : 2
Параметр QPel формата : Нет
Параметр GMC формата : Без точки перехода
Параметр матрицы формата : Default (MPEG)
Идентификатор кодека : XVID
Идентификатор кодека/Подсказка : XviD
Продолжительность : 1 ч. 40 м.
Битрейт : 1662 Кбит/сек
Ширина : 720 пикселей
Высота : 400 пикселей
Соотношение сторон : 16:9
Частота кадров : 25,000 кадров/сек
Частота кадров в оригинале : 23,976 кадра/сек
Цветовое пространство : YUV
Субдискретизация насыщенности : 4:2:0
Битовая глубина : 8 бит
Тип развёртки : Прогрессивная
Метод сжатия : С потерями
Бит/(Пиксели*Кадры) : 0.231
Размер потока : 1,16 Гбайт (83%)
Библиотека кодирования : XviD 1.2.1 (UTC 2008-12-04)

Аудио
Идентификатор : 1
Формат : AC-3
Формат/Информация : Audio Coding 3
Расширение режима : CM (complete main)
Идентификатор кодека : 2000
Продолжительность : 1 ч. 40 м.
Вид битрейта : Постоянный
Битрейт : 320 Кбит/сек
Каналы : 6 каналов
Расположение каналов : Front: L C R, Side: L R, LFE
Частота : 48,0 КГц
Битовая глубина : 16 бит
Метод сжатия : С потерями
Размер потока : 229 Мбайт (16%)
Выравнивание : Разделение по промежуткам
Продолжительность промежутка : 40 мс. (1,00 видеокадр)
Время предзагрузки промежутка : 500 мс.
Скриншоты:
[center]
загрузка...
Правила, инструкции, FAQ!!!
Торрент  Добавлен [24 окт 2014, 20:34] Скачать торрент
Скачать торрент
[ Размер 14.63 КБ / Просмотров 3 ]

Статус
Проверен 
 
Размер  1.4 ГБ
Приватный: Нет (DHT включён)
.torrent скачан  0
Как залить торрент? | Как скачать Torrent? | Как смотреть и слушать онлайн?  


     Отправить личное сообщение
   
Страница 1 из 1
Показать сообщения за:  Поле сортировки  
Начать новую тему Ответить на тему

   Похожие торренты   Автор   Ответы   Просмотры   Последнее сообщение 
В этой теме нет новых непрочитанных сообщений. Скачать торрент Проверен (Stoner Rock/Doom Metal) [LP] [24/96] Sleep - Sleep's Holy Mountain - 1992 (2007), FLAC (tracks)

в форуме Зарубежный рок (оцифровки), Размер: 1017.07 МБ, Здоровье: 0%

Anonymous

0
0|0

13
0

24 авг 2016, 14:29

Anonymous Перейти к последнему сообщению

В этой теме нет новых непрочитанных сообщений. Скачать торрент Проверен Team Sleep - Team Sleep (2005) [MP3|320 кб/с]<Experimental Rock, Alternative, Ambient Trip-Hop>

в форуме Рок, Панк, Метал, Альтернатива, Размер: 130.72 МБ, Здоровье: 0%

Anonymous

0
0|0

24
0

27 июл 2014, 21:45

Anonymous Перейти к последнему сообщению

В этой теме нет новых непрочитанных сообщений. Скачать торрент Ледовый путь дальнобойщиков : Самые опасные дороги / Ice Road Truckers : Deadliest Roads / Сезон: 1 / Серии: 01-10 (10) (Thom Beers, Philip David Segal) [2010, документальный, BDRip] [720p]

в форуме Документальные/познавательные фильмы, Размер: 13.08 ГБ, Здоровье: 100%

Anonymous

0
16|13

800
1

04 мар 2014, 13:56

Anonymous Перейти к последнему сообщению

В этой теме нет новых непрочитанных сообщений. Скачать торрент Проверен Земфира - Москва, Крокус Холл, 17.09.2010 (CamRip, HD) [2010, Rock, HDRip] [2010, Rock, HDRip]

в форуме Концерты (HD-Video), Размер: 7.45 ГБ, Здоровье: 100%

Anonymous

0
2|1

10
0

23 окт 2016, 19:38

Anonymous Перейти к последнему сообщению

В этой теме нет новых непрочитанных сообщений. Скачать торрент Проверен Опасные пустяки (1983) VHSRip

в форуме Развивающее Видео для детей, Размер: 76.85 МБ, Здоровье: 100%

Anonymous

0
6|1

48
0

01 дек 2015, 00:14

Anonymous Перейти к последнему сообщению



Сейчас этот форум просматривают: нет зарегистрированных пользователей и гости: 1


Вы не можете начинать темы
Вы не можете отвечать на сообщения
Вы не можете редактировать свои сообщения
Вы не можете удалять свои сообщения
Вы не можете добавлять вложения

Перейти:  

!ВНИМАНИЕ!
 Ресурс не предоставляет электронные версии произведений, а занимается лишь коллекционированием и каталогизацией ссылок, присылаемых и публикуемых на форуме нашими читателями. Если вы являетесь правообладателем какого-либо представленного материала и не желаете чтобы ссылка на него находилась в нашем каталоге, свяжитесь с нами и мы незамедлительно удалим её. Файлы для обмена на трекере предоставлены пользователями сайта, и администрация не несёт ответственности за их содержание. Просьба не заливать файлы, защищенные авторскими правами, а также файлы нелегального содержания!