На всех торрентах на трекере установлена скидка на скачивание в размере 100 процентов(а).
 Возможность скачивания торрента НЕ зависит от ограничений при низком ратио, низком аплоаде, требуемом ратио или требуемом аплоаде.


Начать новую тему Ответить на тему
Статистика раздачи
Размер: 1.37 ГБ | Добавлен: 24 сен 2014, 09:36 | Скачали: 6797
Сидеров: 720  [0 байт/сек]    Личеров: 67  [0 байт/сек]
Пред. тема | След. тема 

Автор
Сообщение

СообщениеДобавлено: 24 сен 2014, 09:36 

Название: Исправление / Спасенная
Оригинальное название: Reclaim
Год выхода: 2014
Жанр: Триллер
Режиссер: Алан Уайт

В ролях: Джон Кьюсак, Райан Филипп, Рашель Лефевр, Джеки Уивер, Луис Гусман, Бриана Рой, Яндрес Бургос, Лиз Вероника Фу, Алекс Синтрон, Милли Руперто

О фильме:
Американская пара становится жертвой аферы во время своего путешествия в Пуэрто-Рико. И теперь им придется рискнуть своей жизнью ради спасения собственной дочери.


Страна: США, Китай, Малайзия
Продолжительность: 01:36:02
Перевод: Любительский одноголосый закадровый (qwerty)


Кодек: MPEG-4 Video (XVID)
Качество: BDRip | L1 qwerty
Видео: MPEG4, XviD, 720x384 (1.860), 23.976 fps, 1 560 Kbps (0.235 bit/pixel)
Звук: AC-3, 48.0 KHz, 6 ch, 448 Kbps, CBR (Russian)
Субтитры: Нет

General
Unique ID : 211784281942073527554234605355769960864 (0x9F542B45D49B7F82B2BDF6425FDA99A0)
Complete name : Reclaim.2014.mkv
Format : Matroska
Format version : Version 4 / Version 2
File size : 1.37 GiB
Duration : 1h 36mn
Overall bit rate : 2 049 Kbps
Encoded date : UTC 2014-09-24 02:47:51
Writing application : mkvmerge v6.8.0 ('Theme for Great Cities') 32bit built on Mar 2 2014 21:27:07
Writing library : libebml v1.3.0 + libmatroska v1.4.1

Video
ID : 1
Format : MPEG-4 Visual
Format profile : Simple@L5
Format settings, BVOP : No
Format settings, QPel : No
Format settings, GMC : No warppoints
Format settings, Matrix : Default (H.263)
Codec ID : XVID
Codec ID/Hint : XviD
Duration : 1h 36mn
Bit rate : 1 560 Kbps
Width : 720 pixels
Height : 384 pixels
Display aspect ratio : 1.85:1
Frame rate mode : Variable
Frame rate : 23.976 fps
Color space : YUV
Chroma subsampling : 4:2:0
Bit depth : 8 bits
Scan type : Progressive
Compression mode : Lossy
Bits/(Pixel*Frame) : 0.235
Stream size : 1.05 GiB (76%)
Writing library : Lavc56.1.100
Default : Yes
Forced : No

Audio
ID : 2
Format : AC-3
Format/Info : Audio Coding 3
Mode extension : CM (complete main)
Format settings, Endianness : Big
Codec ID : A_AC3
Duration : 1h 36mn
Bit rate mode : Constant
Bit rate : 448 Kbps
Channel(s) : 6 channels
Channel positions : Front: L C R, Side: L R, LFE
Sampling rate : 48.0 KHz
Bit depth : 16 bits
Compression mode : Lossy
Stream size : 308 MiB (22%)
Title : Русская дорожка_Qwerty
Language : Russian
Default : Yes
Forced : No
загрузка...
Правила, инструкции, FAQ!!!
Торрент  Добавлен [24 сен 2014, 09:36] Скачать торрент
Скачать торрент
[ Размер 14.29 КБ / Просмотров 4 ]

Статус
Проверен 
 
Размер  1.37 ГБ
Приватный: Нет (DHT включён)
.torrent скачан  6797
Как залить торрент? | Как скачать Torrent? | Как смотреть и слушать онлайн?  


     Отправить личное сообщение
   
Страница 1 из 1
Показать сообщения за:  Поле сортировки  
Начать новую тему Ответить на тему

   Похожие торренты   Автор   Ответы   Просмотры   Последнее сообщение 
В этой теме нет новых непрочитанных сообщений. Скачать торрент Проверен Исправление / Reclaim (2014) WEB-DL 720p | L2

в форуме 720p | 1080p, Размер: 3.97 ГБ, Здоровье: 100%

Anonymous

0
96|3

46
1635

28 сен 2014, 09:17

Anonymous Перейти к последнему сообщению

В этой теме нет новых непрочитанных сообщений. Скачать торрент Проверен Возврат / Reclaim (2014) BDRip 1080p | L2

в форуме 720p | 1080p, Размер: 9.42 ГБ, Здоровье: 100%

Anonymous

0
22|4

48
306

28 ноя 2014, 16:23

Anonymous Перейти к последнему сообщению

В этой теме нет новых непрочитанных сообщений. Скачать торрент Проверен (Heavy Metal) Risen To Reclaim - Paradox - (2014), MP3, 320 kbps

в форуме Heavy, Power, Progressive (Metal), Размер: 100.24 МБ, Здоровье: 0%

Anonymous

0
0|0

0
0

09 окт 2016, 12:16

Anonymous Перейти к последнему сообщению

В этой теме нет новых непрочитанных сообщений. Скачать торрент Спасенная / Спасена! / Saved (Брайан Дэннели / Brian Dannelly) [2004, США, комедия, драма, DVDRip]

в форуме Комедии, Размер: 742.27 МБ, Здоровье: 0%

Anonymous

0
0|0

42
0

28 апр 2014, 22:41

Anonymous Перейти к последнему сообщению

В этой теме нет новых непрочитанных сообщений. Скачать торрент Проверен (Классика) Исправление к полному собранию произведений И.С. Баха - Hanssler Edition

в форуме Классика, Размер: 318.36 МБ, Здоровье: 0%

Anonymous

0
0|0

0
0

06 окт 2016, 22:53

Anonymous Перейти к последнему сообщению



Сейчас этот форум просматривают: нет зарегистрированных пользователей и гости: 1


Вы не можете начинать темы
Вы не можете отвечать на сообщения
Вы не можете редактировать свои сообщения
Вы не можете удалять свои сообщения
Вы не можете добавлять вложения

Перейти:  

!ВНИМАНИЕ!
 Ресурс не предоставляет электронные версии произведений, а занимается лишь коллекционированием и каталогизацией ссылок, присылаемых и публикуемых на форуме нашими читателями. Если вы являетесь правообладателем какого-либо представленного материала и не желаете чтобы ссылка на него находилась в нашем каталоге, свяжитесь с нами и мы незамедлительно удалим её. Файлы для обмена на трекере предоставлены пользователями сайта, и администрация не несёт ответственности за их содержание. Просьба не заливать файлы, защищенные авторскими правами, а также файлы нелегального содержания!