На всех торрентах на трекере установлена скидка на скачивание в размере 100 процентов(а).
 Возможность скачивания торрента НЕ зависит от ограничений при низком ратио, низком аплоаде, требуемом ратио или требуемом аплоаде.


Начать новую тему Ответить на тему
Статистика раздачи
Размер: 1.45 ГБ | Добавлен: 21 сен 2014, 22:16 | Скачали: 0
Сидеров: 63  [0 байт/сек]    Личеров: 32  [0 байт/сек]
Пред. тема | След. тема 

Автор
Сообщение

СообщениеДобавлено: 21 сен 2014, 22:16 

Год выпуска: 2000
Производство: США, Artisan Entertainment
Жанр: Триллер, драма, комедия, криминал

Режиссер: Генри Бромелл
Актеры: Уильям Х. Мэйси, Джон Риттер, Нив Кэмпбелл, Дональд Сазерленд, Трейси Уллмен, Барбара Бэйн, Дэвид Дорфман, Тина Лиффорд, Бикс Барнаба, Николь Том

Описание фильма:
Их семейный бизнес приносил хорошие деньги: убийство по найму — дорогая работа. Но однажды Алекс решил завязать. Он почувствовал, что устал. Устал убивать. Но не учел одного, что его отец так или иначе найдет способ устранить проблему, чтобы спасти дело, которому посвятил всю свою жизнь.

Перевод: Профессиональный многоголосый
Субтитры: Отсутствуют


Продолжительность: 01:24:15
Качество видео: DVDRip (AVC)

Видеокодек: MPEG-4 AVC
Битрейт видео: ~1683 Кбит/с
Размер кадра: 714х574@761x574
Аудио:
1. AC3, 6 ch, 384 Кбит/с - русский
2. AC3, 6 ch, 384 Кбит/с - английский

Общее
Уникальный идентификатор : 274378602854846009846301255234646046553 (0xCE6B659057736E2C2F3E50E8ADE5F759)
Полное имя : C:\NNM\Паника\Panika 2000 DVDRip AVC.mkv
Формат : Matroska
Версия формата : Version 1
Размер файла : 1,45 Гбайт
Продолжительность : 1 ч. 24 м.
Общий поток : 2459 Кбит/сек
Программа кодирования : HandBrake 0.9.3

Видео
Идентификатор : 1
Формат : AVC
Формат/Информация : Advanced Video Codec
Профиль формата :
Параметр CABAC формата : Да
Параметр ReFrames формата : 2 кадра
Идентификатор кодека : V_MPEG4/ISO/AVC
Продолжительность : 1 ч. 24 м.
Битрейт : 1683 Кбит/сек
Ширина : 714 пикселей
Высота : 574 пикселя
Соотношение сторон : 4:3
Соотношение сторон в оригинале : 4:3
Частота кадров : 25,000 кадров/сек
Цветовое пространство : YUV
Субдискретизация насыщенности : 4:2:0
Битовая глубина : 8 бит
Тип развёртки : Прогрессивная
Бит/(Пиксели*Кадры) : 0.164
Размер потока : 990 Мбайт (67%)
Библиотека кодирования : x264 core 65
Настройки программы : cabac=1 / ref=2 / deblock=1:0:0 / analyse=0x1:0x111 / me=umh / subme=6 / psy_rd=1.0:0.0 / mixed_ref=0 / me_range=16 / chroma_me=1 / trellis=0 / 8x8dct=0 / cqm=0 / deadzone=21,11 / chroma_qp_offset=-2 / threads=1 / nr=0 / decimate=1 / mbaff=0 / bframes=2 / b_pyramid=0 / b_adapt=1 / b_bias=0 / direct=1 / wpredb=0 / keyint=250 / keyint_min=25 / scenecut=40 / rc=2pass / bitrate=1683 / ratetol=1.0 / qcomp=0.60 / qpmin=10 / qpmax=51 / qpstep=4 / cplxblur=20.0 / qblur=0.5 / ip_ratio=1.40 / pb_ratio=1.30 / aq=1:1.00
Язык : English
Default : Да
Forced : Нет
Основные цвета : BT.601-6 525, BT.1358 525, BT.1700 NTSC, SMPTE 170M
Характеристики трансфера : BT.709-5, BT.1361
Коэффициенты матрицы : BT.601-6 525, BT.1358 525, BT.1700 NTSC, SMPTE 170M

Аудио #1
Идентификатор : 2
Формат : AC-3
Формат/Информация : Audio Coding 3
Расширение режима : CM (complete main)
Идентификатор кодека : A_AC3
Продолжительность : 1 ч. 24 м.
Вид битрейта : Постоянный
Битрейт : 384 Кбит/сек
Каналы : 6 каналов
Расположение каналов : Front: L C R, Side: L R, LFE
Частота : 48,0 КГц
Битовая глубина : 16 бит
Метод сжатия : С потерями
Размер потока : 231 Мбайт (16%)
Язык : Russian
Default : Да
Forced : Нет

Аудио #2
Идентификатор : 3
Формат : AC-3
Формат/Информация : Audio Coding 3
Расширение режима : CM (complete main)
Идентификатор кодека : A_AC3
Продолжительность : 1 ч. 24 м.
Вид битрейта : Постоянный
Битрейт : 384 Кбит/сек
Каналы : 6 каналов
Расположение каналов : Front: L C R, Side: L R, LFE
Частота : 48,0 КГц
Битовая глубина : 16 бит
Метод сжатия : С потерями
Размер потока : 231 Мбайт (16%)
Язык : English
Default : Да
Forced : Нет

Меню
00:00:00.000 : Chapter 1
00:04:38.760 : Chapter 2
00:08:50.440 : Chapter 3
00:12:29.880 : Chapter 4
00:18:22.960 : Chapter 5
00:23:20.360 : Chapter 6
00:26:25.000 : Chapter 7
00:31:26.080 : Chapter 8
00:35:13.840 : Chapter 9
00:39:36.920 : Chapter 10
00:43:51.760 : Chapter 11
00:48:59.560 : Chapter 12
00:52:25.000 : Chapter 13
00:56:43.920 : Chapter 14
01:00:46.280 : Chapter 15
01:05:38.000 : Chapter 16
01:13:17.160 : Chapter 17
01:20:20.960 : Chapter 18
Скриншоты:
загрузка...
Правила, инструкции, FAQ!!!
Торрент  Добавлен [21 сен 2014, 22:16] Скачать торрент
Скачать торрент
[ Размер 15.13 КБ / Просмотров 61 ]

Статус
Проверен 
 
Размер  1.45 ГБ
Приватный: Нет (DHT включён)
.torrent скачан  0
Как залить торрент? | Как скачать Torrent? | Как смотреть и слушать онлайн?  


     Отправить личное сообщение
   
Страница 1 из 1
Показать сообщения за:  Поле сортировки  
Начать новую тему Ответить на тему

   Похожие торренты   Автор   Ответы   Просмотры   Последнее сообщение 
В этой теме нет новых непрочитанных сообщений. Скачать торрент Проверен Тяжёлый металл 2000 / Heavy Metal 2000 (2000) DVDRip-AVC | P

в форуме Зарубежные мультфильмы, Размер: 2.08 ГБ, Здоровье: 100%

Гость

0
111|62

581
94

04 окт 2015, 23:24

Гость Перейти к последнему сообщению

В этой теме нет новых непрочитанных сообщений. Скачать торрент Проверен (Rock) Сердце солнцА (ех-Паника-Киев) - Попытка дискографии (8 релизов) - 2010-2013, MP3, 128-320 kbps

в форуме Русский Рок, Размер: 246.63 МБ, Здоровье: 100%

Anonymous

0
3|1

2
0

23 авг 2016, 09:25

Anonymous Перейти к последнему сообщению

В этой теме нет новых непрочитанных сообщений. Скачать торрент Проверен (Punk) пАника? - Я убит под Ржевом (live 2008) - 2008, MP3 (tracks), 320 kbps

в форуме Русский Рок, Размер: 47.62 МБ, Здоровье: 0%

Anonymous

0
0|0

1
0

23 авг 2016, 09:25

Anonymous Перейти к последнему сообщению

В этой теме нет новых непрочитанных сообщений. Скачать торрент Проверен (Punk-Rock/Pop-Punk) Паника! - Только без паники!!! - 2002, MP3, 128 kbps

в форуме Русский Рок, Размер: 34.3 МБ, Здоровье: 0%

Anonymous

0
0|0

1
0

23 авг 2016, 09:25

Anonymous Перейти к последнему сообщению

В этой теме нет новых непрочитанных сообщений. Скачать торрент Проверен (punk) [LP] [24/96] Panic - 13 - 1978, FLAC (tracks)

в форуме Зарубежный рок (оцифровки), Размер: 687.5 МБ, Здоровье: 0%

Anonymous

0
0|0

2
0

24 авг 2016, 14:37

Anonymous Перейти к последнему сообщению



Сейчас этот форум просматривают: нет зарегистрированных пользователей и гости: 1


Вы не можете начинать темы
Вы не можете отвечать на сообщения
Вы не можете редактировать свои сообщения
Вы не можете удалять свои сообщения
Вы не можете добавлять вложения

Перейти:  

!ВНИМАНИЕ!
 Ресурс не предоставляет электронные версии произведений, а занимается лишь коллекционированием и каталогизацией ссылок, присылаемых и публикуемых на форуме нашими читателями. Если вы являетесь правообладателем какого-либо представленного материала и не желаете чтобы ссылка на него находилась в нашем каталоге, свяжитесь с нами и мы незамедлительно удалим её. Файлы для обмена на трекере предоставлены пользователями сайта, и администрация не несёт ответственности за их содержание. Просьба не заливать файлы, защищенные авторскими правами, а также файлы нелегального содержания!