На всех торрентах на трекере установлена скидка на скачивание в размере 100 процентов(а).
 Возможность скачивания торрента НЕ зависит от ограничений при низком ратио, низком аплоаде, требуемом ратио или требуемом аплоаде.


Начать новую тему Ответить на тему
Статистика раздачи
Размер: 1.6 ГБ | Добавлен: 12 мар 2013, 11:38 | Скачали: 4
Сидеров: 0  [0 байт/сек]    Личеров: 2  [0 байт/сек]
Пред. тема | След. тема 

Автор
Сообщение

СообщениеДобавлено: 12 мар 2013, 11:38 

Название: Море Солтона
Оригинальное название: The Salton Sea
Год выхода: 2002
Жанр: Триллер, Драма, Криминал
Режиссер: Д. Дж. Карузо / D. J. Caruso

В фильме снимались: Вэл Килмер, Винсент Д'Онофрио, Адам Голдберг, Луис Гусман, Даг Хатчисон, Энтони ЛаПалья, Гленн Пламмер, Питер Сарсгаард, Дебора Кара Ангер, Чандра Уэст

Вкратце:
Дэнни Паркер(Вэл Килмер)-пример того,как трансформируется человеческий характер под влиянием сильных потрясений.Пережив ужасную трагедию(его жену убили у него на глазах,а он,скованный ужасом,не смог этому помешать),Дэнни превращается из уравновешенного паренька любящего джаз,в татуированного отморозка,который жаждет мести.История начинается с конца,разворачивая спираль событий,и снова возвращается к той точке,с которой началась.Дуг Хатчисон и Энтони ЛаПалья играют копов,использующих Дэнни как приманку.А сам он для того,что бы отомстить за жену и доказать себе и окружающим,что не является трусом,внедряется в мир наркобизнеса...


Страна: США
Продолжительность: 01:43:32
Перевод: Профессиональный (Многоголосый закадровый), Профессиональный (двухголосый закадровый) пер. Леонида Векшина читают Пётр Гланц и Евгения Лютая (Присутствует ненормативная лексика)

Формат: avi
Кодек: Xvid
Качество: WEB-DLRip
Видео: 704x400, 23.976 fps, 1820 Kbps
Аудио 1: AC3, 2 ch, 192.00 kbps.............Профессиональный (Многоголосый закадровый)
Аудио 2: AC3, 2 ch, 192.00 kbps.............Профессиональный (двухголосый закадровый) Пётр Гланц и Евгения Лютая (Присутствует ненормативная лексика)
General
Complete name : The.Salton.Sea.2002.WEB-DLRip.avi
Format : AVI
Format/Info : Audio Video Interleave
File size : 1.60 GiB
Duration : 1h 43mn
Overall bit rate : 2 218 Kbps
Writing application : VirtualDubMod 1.5.10.2 (build 2542/release)
Writing library : VirtualDubMod build 2542/release

Video
ID : 0
Format : MPEG-4 Visual
Format profile : Advanced Simple@L5
Format settings, BVOP : 1
Format settings, QPel : No
Format settings, GMC : No warppoints
Format settings, Matrix : Custom
Codec ID : XVID
Codec ID/Hint : XviD
Duration : 1h 43mn
Bit rate : 1 820 Kbps
Width : 704 pixels
Height : 400 pixels
Display aspect ratio : 16:9
Frame rate : 23.976 fps
Color space : YUV
Chroma subsampling : 4:2:0
Bit depth : 8 bits
Scan type : Progressive
Compression mode : Lossy
Bits/(Pixel*Frame) : 0.269
Stream size : 1.32 GiB (82%)
Writing library : XviD 65

Audio #1
ID : 1
Format : AC-3
Format/Info : Audio Coding 3
Mode extension : CM (complete main)
Format settings, Endianness : Big
Codec ID : 2000
Duration : 1h 43mn
Bit rate mode : Constant
Bit rate : 192 Kbps
Channel(s) : 2 channels
Channel positions : Front: L R
Sampling rate : 48.0 KHz
Bit depth : 16 bits
Compression mode : Lossy
Delay relative to video : 1s 49ms
Stream size : 142 MiB (9%)
Alignment : Split accross interleaves
Interleave, duration : 42 ms (1.00 video frame)
Interleave, preload duration : 500 ms

Audio #2
ID : 2
Format : AC-3
Format/Info : Audio Coding 3
Mode extension : CM (complete main)
Format settings, Endianness : Big
Codec ID : 2000
Duration : 1h 43mn
Bit rate mode : Constant
Bit rate : 192 Kbps
Channel(s) : 2 channels
Channel positions : Front: L R
Sampling rate : 48.0 KHz
Bit depth : 16 bits
Compression mode : Lossy
Delay relative to video : 1s 39ms
Stream size : 142 MiB (9%)
Alignment : Split accross interleaves
Interleave, duration : 42 ms (1.00 video frame)
Interleave, preload duration : 500 ms

загрузка...
Правила, инструкции, FAQ!!!
Торрент  Добавлен [12 мар 2013, 11:38] Скачать торрент
Скачать торрент
[ Размер 16.66 КБ / Просмотров 9 ]

Статус  
 
Размер  1.6 ГБ
Приватный: Нет (DHT включён)
.torrent скачан  4
Как залить торрент? | Как скачать Torrent? | Как смотреть и слушать онлайн?  


     Отправить личное сообщение
   
Страница 1 из 1
Показать сообщения за:  Поле сортировки  
Начать новую тему Ответить на тему

   Похожие торренты   Автор   Ответы   Просмотры   Последнее сообщение 
В этой теме нет новых непрочитанных сообщений. Скачать торрент Паранойя / Disturbia (Ди Джей Карузо / D.J. Caruso) [2007 г., триллер, драма, BDRip-AVC] Dub

в форуме Триллеры, Размер: 3.82 ГБ, Здоровье: 0%

Anonymous

0
0|0

161
0

01 апр 2014, 09:34

Anonymous Перейти к последнему сообщению

В этой теме нет новых непрочитанных сообщений. Скачать торрент Паранойя / Disturbia (Ди Джей Карузо / D.J. Caruso) [2007, США, триллер, драма, HDRip] DUB

в форуме Триллеры, Размер: 2.51 ГБ, Здоровье: 0%

Anonymous

0
0|0

61
0

02 апр 2014, 08:24

Anonymous Перейти к последнему сообщению

В этой теме нет новых непрочитанных сообщений. Скачать торрент Проверен [iPad] На крючке / Eagle Eye (Д. Дж. Карузо / D.J. Caruso) [2008 г., США, Германия, боевик, триллер, детектив, BDRip]

в форуме Фильмы для iPod, iPhone, iPad, Размер: 2.39 ГБ, Здоровье: 100%

Anonymous

0
11|4

25
0

11 май 2015, 01:39

Anonymous Перейти к последнему сообщению

В этой теме нет новых непрочитанных сообщений. Скачать торрент На крючке / Eagle Eye (Д. Дж. Карузо / D.J. Caruso) [2008 г., Боевик, триллер, детектив, HDRip] Dub Альтернативная версия (финал)

в форуме Боевики, Размер: 743.04 МБ, Здоровье: 100%

Anonymous

0
32|4

39
1

12 фев 2014, 11:46

Anonymous Перейти к последнему сообщению

В этой теме нет новых непрочитанных сообщений. Скачать торрент Забирая жизни / Taking Lives (Д. Дж. Карузо / D.J. Caruso) [2004, США, Триллер, BDRip 720p] [Режиссерская версия / Unrated Director's Cut] Dub

в форуме 720p | 1080p, Размер: 6.8 ГБ, Здоровье: 0%

Anonymous

0
0|0

55
0

25 фев 2014, 22:43

Anonymous Перейти к последнему сообщению



Сейчас этот форум просматривают: нет зарегистрированных пользователей и гости: 2


Вы не можете начинать темы
Вы не можете отвечать на сообщения
Вы не можете редактировать свои сообщения
Вы не можете удалять свои сообщения
Вы не можете добавлять вложения

Перейти:  

!ВНИМАНИЕ!
 Ресурс не предоставляет электронные версии произведений, а занимается лишь коллекционированием и каталогизацией ссылок, присылаемых и публикуемых на форуме нашими читателями. Если вы являетесь правообладателем какого-либо представленного материала и не желаете чтобы ссылка на него находилась в нашем каталоге, свяжитесь с нами и мы незамедлительно удалим её. Файлы для обмена на трекере предоставлены пользователями сайта, и администрация не несёт ответственности за их содержание. Просьба не заливать файлы, защищенные авторскими правами, а также файлы нелегального содержания!