На всех торрентах на трекере установлена скидка на скачивание в размере 100 процентов(а).
 Возможность скачивания торрента НЕ зависит от ограничений при низком ратио, низком аплоаде, требуемом ратио или требуемом аплоаде.


Начать новую тему Ответить на тему
Статистика раздачи
Размер: 1.46 ГБ | Добавлен: 06 сен 2014, 13:24 | Скачали: 0
Сидеров: 56  [0 байт/сек]    Личеров: 19  [0 байт/сек]
Пред. тема | След. тема 

Автор
Сообщение

СообщениеДобавлено: 06 сен 2014, 13:24 

Страна: США
Жанр: Триллер, фантастика, драма
Год выпуска: 2013
Продолжительность: 01:35:17
Перевод: Профессиональный (многоголосый закадровый)
Cубтитры: Нет
Режиссер: Джеффри Трэвис / Jeffrey Travis
В ролях: Этан Флауер, Ааса Уолландер, Дженн Готцон, Элой Мендес, Hope Laubach, Уильям Найт, Дэннис Делсинг, Ричард С. Джонс, Скут МакНэйри, Каиви Лайман
Описание: Недалекое будущее. Китай неожиданно начинает крупномасштабную кибер-атаку на США за неуплату долга. Каждый компьютер, каждый гаджет, произведенный в Китае, наделен убийственным вирусом, который парализует все финансовые, телекоммуникационные, военные и энергетические системы. Самолеты падают с неба, города остаются без света, жители страны оказываются в оккупации. Теперь каждый американец обязан носить специальный браслет, по которым захватчики отслеживают местонахождение человека. Одному из американских ученых кибернетиков по счастливой случайности удается избежать плена. У него есть план, как спасти свою семью и предотвратить дальнейшее вторжение, но для этого ему предстоит проделать долгий полный опасностей путь
Сэмпл: http://sendfile.su/992253
Качество видео: HDRip
Формат видео: AVI

Видео: XviD, 720x400, 23.976fps, 1799kbps
Аудио: AC3, 48000Hz, 6ch, 384kbps
Complete name : D:\3.Торренты\Denj.vtorzheniya.2013.P.HDRip.avi
Format : AVI
Format/Info : Audio Video Interleave
File size : 1.46 GiB
Duration : 1h 35mn
Overall bit rate : 2 192 Kbps
Writing application : VirtualDubMod 1.5.10.2 (build 2540/release)
Writing library : VirtualDubMod build 2540/release

Video
ID : 0
Format : MPEG-4 Visual
Format profile : Advanced Simple@L5
Format settings, BVOP : Yes
Format settings, QPel : No
Format settings, GMC : No warppoints
Format settings, Matrix : Default (MPEG)
Codec ID : XVID
Codec ID/Hint : XviD
Duration : 1h 35mn
Bit rate : 1 799 Kbps
Width : 720 pixels
Height : 400 pixels
Display aspect ratio : 16:9
Frame rate : 23.976 fps
Color space : YUV
Chroma subsampling : 4:2:0
Bit depth : 8 bits
Scan type : Progressive
Compression mode : Lossy
Bits/(Pixel*Frame) : 0.260
Stream size : 1.20 GiB (82%)
Writing library : XviD 1.2.1 (UTC 2008-12-04)

Audio
ID : 1
Format : AC-3
Format/Info : Audio Coding 3
Mode extension : CM (complete main)
Format settings, Endianness : Big
Codec ID : 2000
Duration : 1h 35mn
Bit rate mode : Constant
Bit rate : 384 Kbps
Channel(s) : 6 channels
Channel positions : Front: L C R, Side: L R, LFE
Sampling rate : 48.0 KHz
Bit depth : 16 bits
Compression mode : Lossy
Stream size : 262 MiB (18%)
Alignment : Split accross interleaves
Interleave, duration : 42 ms (1.00 video frame)
Interleave, preload duration : 500 ms
загрузка...
Правила, инструкции, FAQ!!!
Торрент  Добавлен [06 сен 2014, 13:24] Скачать торрент
Скачать торрент
[ Размер 15.09 КБ / Просмотров 10 ]

Статус
Проверен 
 
Размер  1.46 ГБ
Приватный: Нет (DHT включён)
.torrent скачан  0
Как залить торрент? | Как скачать Torrent? | Как смотреть и слушать онлайн?  


     Отправить личное сообщение
   
Страница 1 из 1
Показать сообщения за:  Поле сортировки  
Начать новую тему Ответить на тему

   Похожие торренты   Автор   Ответы   Просмотры   Последнее сообщение 
В этой теме нет новых непрочитанных сообщений. Скачать торрент Сложная штука / Гранит науки / Rocket Science (Jeffrey Blitz / Джеффри Блитц) [2007 г., комедия, драма, DVDRip] VO (NewStudio)

в форуме Комедии, Размер: 701.8 МБ, Здоровье: 100%

Anonymous

0
1|0

54
0

13 фев 2014, 06:32

Anonymous Перейти к последнему сообщению

В этой теме нет новых непрочитанных сообщений. Скачать торрент Проверен [iPad] Гравитация / Gravity (Альфонсо Куарон / Alfonso Cuarón ) [2013, США, Великобритания , фантастика, триллер, драма, HDRip, SD (576p)] DUB + Original + sub (rus, eng)

в форуме Фильмы для iPod, iPhone, iPad, Размер: 1.61 ГБ, Здоровье: 100%

Гость

0
35|11

78
1

18 май 2015, 10:55

Гость Перейти к последнему сообщению

В этой теме нет новых непрочитанных сообщений. Скачать торрент Проверен Новейшие технологии - Travis B.E. / Трэвис Б. - XML и SOAP программирование для серверов BizTalk [2001, PDF, RUS]

в форуме Веб-дизайн и программирование, Размер: 44.99 МБ, Здоровье: 0%

Anonymous

0
0|0

3
0

22 окт 2016, 10:05

Anonymous Перейти к последнему сообщению

В этой теме нет новых непрочитанных сообщений. Скачать торрент Проверен [iPod] Не отпускай меня / Never Let Me Go (Марк Романек / Mark Romanek) [2010, фантастика, триллер, драма, HDRip]

в форуме Фильмы для iPod, iPhone, iPad, Размер: 448.91 МБ, Здоровье: 100%

Anonymous

0
3|1

20
0

18 май 2015, 10:46

Anonymous Перейти к последнему сообщению

В этой теме нет новых непрочитанных сообщений. Скачать торрент Не отпускай меня / Never Let Me Go (Марк Романек / Mark Romanek) [2010, США, Великобритания, фантастика, триллер, драма, HDRip] DVO + Sub (rus, eng)

в форуме Фантастика, Фэнтези, Размер: 1.46 ГБ, Здоровье: 100%

Anonymous

0
3|1

62
0

12 фев 2014, 08:17

Anonymous Перейти к последнему сообщению



Сейчас этот форум просматривают: нет зарегистрированных пользователей и гости: 1


Вы не можете начинать темы
Вы не можете отвечать на сообщения
Вы не можете редактировать свои сообщения
Вы не можете удалять свои сообщения
Вы не можете добавлять вложения

Перейти:  

!ВНИМАНИЕ!
 Ресурс не предоставляет электронные версии произведений, а занимается лишь коллекционированием и каталогизацией ссылок, присылаемых и публикуемых на форуме нашими читателями. Если вы являетесь правообладателем какого-либо представленного материала и не желаете чтобы ссылка на него находилась в нашем каталоге, свяжитесь с нами и мы незамедлительно удалим её. Файлы для обмена на трекере предоставлены пользователями сайта, и администрация не несёт ответственности за их содержание. Просьба не заливать файлы, защищенные авторскими правами, а также файлы нелегального содержания!